<?xml version="1.0" encoding="UTF-8" standalone="no"?> <svg xmlns="http://www.w3.org/2000/svg" xmlns:xlink="http://www.w3.org/1999/xlink"><metadata> Created by FontForge 20190801 at Fri Sep 11 18:56:12 2015 By Jimmy Wärting Created by User's name with Font.My (http://font.my) </metadata><defs><font id="Sensei-Medium"><glyph glyph-name=".notdef" d="M50 666h265v-666h-265v666zM282 33v600h-199v-600h199z"></glyph><glyph glyph-name="space" unicode=" "></glyph><glyph glyph-name="A" unicode="A" d="M451 254c33 0 62 -28 62 -61s-29 -62 -62 -62h-10v-23l5 -12c3 -7 4 -14 4 -21c0 -33 -26 -62 -62 -62c-42 0 -70 45 -70 94v24h-111c-9 -40 -17 -69 -19 -78c-7 -32 -18 -55 -51 -55c-7 0 -15 1 -22 4c-13 -9 -23 -13 -30 -13c-19 0 -26 22 -33 45c-1 4 -2 10 -2 19 c0 106 95 547 138 632c6 26 27 47 60 47c7 0 14 -1 22 -3c12 21 30 31 53 31c38 0 62 -25 62 -84c0 -1 53 -422 52 -422h14zM236 254h78c-5 61 -13 154 -22 204l-12 -8c-2 -13 -23 -104 -44 -196z"></glyph><glyph glyph-name="Aacute" unicode="Á" d="M496 66c0 3 7 -42 7 -56c0 -24 -22 -57 -60 -57c-29 0 -56 20 -61 49c-5 16 -14 114 -14 123h-131l-5 -23c-5 -15 -8 -26 -9 -30c-10 -45 -19 -75 -64 -75c-11 0 -22 2 -32 8c-11 -13 -25 -20 -38 -20c-21 0 -39 15 -39 41c0 45 1 56 6 84c28 150 165 535 249 600 c-31 2 -54 34 -54 59c0 46 81 139 134 139c30 0 58 -29 58 -62c0 -18 -8 -34 -21 -45c-27 -24 -38 -36 -60 -66l-3 -4c39 -2 62 -34 59 -65c34 -14 48 -142 58 -295zM266 248h95l-15 221l-15 -5c-26 -72 -47 -144 -65 -216z"></glyph><glyph glyph-name="Abreve" unicode="Ă" d="M206 633c-59 0 -113 65 -113 131c0 51 22 77 61 77c11 0 22 -3 32 -9v44c0 33 27 61 61 61c33 0 62 -27 62 -61c0 -180 -23 -243 -103 -243zM393 350c19 -166 45 -345 45 -343c0 -43 -41 -67 -76 -67c-47 0 -65 44 -73 92c0 2 -2 19 -4 45c-38 0 -94 -1 -106 -3 c-3 -29 -5 -54 -6 -68c0 -33 -27 -61 -61 -61c-35 0 -62 27 -62 61c9 186 86 562 173 586c11 3 19 4 25 4s10 -1 13 -2c10 22 31 36 55 36c33 0 62 -28 62 -62c0 -36 0 -90 15 -218zM198 192h77c-9 89 -17 186 -20 207l-8 4c-20 -62 -42 -152 -49 -211z"></glyph><glyph glyph-name="Acircumflex" unicode="Â" d="M219 637c-33 0 -61 27 -61 61c0 67 18 277 85 277s100 -45 150 -167c5 -10 10 -20 21 -38c7 -10 10 -20 10 -31c0 -38 -30 -63 -61 -63c-39 0 -56 27 -79 77l-1 -5c-2 -60 -5 -111 -64 -111zM466 81c2 -7 3 -13 3 -20c0 -9 -2 -18 -6 -27c-8 -15 -20 -26 -35 -31 c-7 -2 -13 -3 -20 -3c-9 0 -18 2 -27 6c-15 7 -26 19 -32 35l-4 13c-4 13 -7 28 -9 47l-116 -2l-1 -6c-6 -37 -10 -64 -24 -80c-4 -5 -13 -9 -23 -10c-12 -23 -30 -36 -56 -36c-13 0 -24 4 -35 11c-14 10 -23 23 -26 39l-2 11c-2 11 -3 21 -3 30v26c0 17 2 36 6 59 c3 20 9 50 16 89c8 41 18 84 31 131c13 48 29 92 47 133c17 39 31 67 41 86l15 26c7 14 19 24 35 29c6 2 12 3 18 3c9 0 19 -3 28 -7c14 12 30 17 52 17c17 0 32 -5 44 -15c13 -11 22 -23 27 -36c6 -14 11 -30 15 -49c5 -17 7 -30 8 -38c2 -9 4 -28 5 -59 c1 -29 3 -64 5 -106c3 -41 5 -81 8 -119c2 -38 4 -70 6 -96c1 -19 3 -32 5 -39zM248 222l80 2c-3 37 -8 158 -10 198l-10 4c-18 -48 -48 -157 -60 -204z"></glyph><glyph glyph-name="Adieresis" unicode="Ä" d="M406 825c34 0 61 -28 61 -62c0 -53 -21 -80 -61 -80c-43 0 -62 30 -62 80c0 33 27 62 62 62zM135 737c0 14 4 26 12 36c7 27 31 46 60 46c36 0 62 -29 62 -69c0 -37 -34 -74 -71 -74s-63 30 -63 61zM211 6c0 -37 -34 -75 -71 -75c-67 0 -90 72 -90 157 c0 196 95 606 221 601c9 4 18 7 28 7c104 0 119 -261 122 -541c1 -52 1 -87 2 -106c14 -12 22 -26 22 -48c0 -34 -28 -60 -62 -60c-40 0 -80 45 -82 91l-2 33l-82 -14zM270 446c-33 -120 -39 -225 -41 -268l69 14c-1 51 -4 142 -7 180c-1 24 -3 49 -6 74h-15z"></glyph><glyph glyph-name="Agrave" unicode="À" d="M414 220v-84c0 -80 1 -100 6 -126c1 -4 1 -9 1 -13c0 -34 -27 -62 -62 -62c-46 0 -63 41 -66 92l-1 26c-7 0 -80 8 -81 8c-3 -10 -2 -22 -3 -53c-2 -31 -14 -51 -37 -57c-6 -26 -32 -47 -59 -47c-37 0 -62 31 -62 62c3 305 61 599 150 699c9 9 20 15 33 18 c-38 11 -98 98 -98 128c0 38 30 62 61 62c29 0 38 -6 87 -75c29 -8 49 -36 46 -66c-4 -29 -27 -51 -55 -54c123 6 140 -206 140 -458zM220 184l71 -8c0 88 -7 222 -11 278h-12c-32 -122 -38 -167 -48 -270z"></glyph><glyph glyph-name="Amacron" unicode="Ā" d="M111 753c0 49 47 68 110 73c27 2 103 18 141 18c34 0 62 -27 62 -62c0 -55 -38 -67 -193 -78c-27 -2 -35 -12 -58 -12c-35 0 -62 26 -62 61zM260 639c7 3 15 5 24 5c35 0 61 -26 61 -68c32 -92 43 -148 43 -242c0 -105 -7 -253 -32 -338c-55 -26 -61 -32 -90 -32 c-24 0 -36 13 -36 40v32l-57 1l-2 -13c-5 -33 -27 -61 -61 -61c-35 0 -60 17 -60 51c0 60 10 82 37 158c38 105 80 292 96 405c-3 5 -4 9 -4 14c0 26 41 46 81 48zM254 410c-20 -114 -55 -234 -61 -251h58c0 7 19 99 19 198c0 21 -1 42 -3 63z"></glyph><glyph glyph-name="Aogonek" unicode="Ą" d="M356 -20c-9 -4 -27 -11 -34 -11c-17 -17 -24 -32 -24 -49c0 -7 2 -14 4 -21c9 -5 31 -15 32 -15c3 0 6 1 9 1c33 0 61 -26 61 -61c0 -41 -42 -64 -78 -64c-89 0 -149 68 -149 163c0 57 39 128 79 152c0 2 0 20 2 48c-43 17 -60 25 -83 39c-13 -72 -16 -125 -64 -125 c-33 0 -61 28 -61 62c0 96 60 405 96 509c27 77 57 133 106 133c11 -1 23 -5 36 -12c65 -15 117 -116 138 -204c15 -60 26 -214 33 -455c1 -35 -26 -63 -62 -64c-10 -15 -24 -23 -41 -26zM269 377c1 16 1 31 1 45c0 50 -3 88 -5 112l-14 -4c-19 -58 -40 -167 -48 -210 c-1 -8 -3 -16 -4 -23c6 -3 13 -9 22 -17c5 -5 19 -13 42 -24z"></glyph><glyph glyph-name="Aring" unicode="Å" d="M111 764c-17 12 -25 28 -25 48c0 67 51 132 116 132c5 0 8 0 11 1c75 5 139 -70 135 -152c-1 -11 -1 -19 -1 -23c0 -77 -56 -137 -137 -137c-65 0 -106 44 -106 95c0 12 3 24 7 36zM212 822c0 -8 -6 -29 -7 -32c8 -5 14 -13 18 -22c1 1 0 -2 3 32c0 14 -7 18 -14 22z M356 508c79 -331 101 -376 101 -462c0 -73 -26 -122 -77 -122c-13 0 -25 4 -33 9c-5 -1 -12 0 -19 0c-47 2 -46 51 -49 109c-1 11 -1 21 -2 31c-27 -5 -63 -8 -100 -14c0 -21 -1 -43 -4 -106c0 -34 -27 -61 -61 -61s-62 27 -62 61c7 194 46 385 106 565 c21 59 53 105 101 105c12 0 22 -3 31 -12c3 1 6 1 9 1c27 0 57 -31 57 -63c0 -8 -2 -9 -2 -10zM199 188c20 4 47 7 71 8c-5 76 -11 140 -17 195l-18 -40c-9 -33 -16 -66 -23 -99z"></glyph><glyph glyph-name="Atilde" unicode="Ã" d="M381 478c34 -107 51 -209 51 -325c0 -92 -23 -211 -96 -211c-25 0 -48 17 -56 41c-19 10 -18 55 -17 73l-81 -2l-12 -74c-2 -37 -24 -59 -52 -59c-38 0 -62 33 -62 65c0 102 47 320 119 552c27 26 52 41 76 44c5 13 14 23 18 26c-32 0 -70 22 -95 47 c-9 -24 -29 -38 -55 -38c-57 0 -69 50 -69 105c3 53 33 110 85 110c35 0 63 -19 95 -55c-7 26 -10 37 -17 59c-3 11 -7 38 -7 42c0 32 27 60 62 60c60 0 87 -108 87 -186c0 -44 -10 -105 -45 -130c39 -5 60 -30 60 -60c0 -9 -1 -15 -1 -25c0 -12 2 -28 12 -59zM269 179 c2 43 -6 171 -15 199l-17 -5l-9 -37l-26 -159z"></glyph><glyph glyph-name="AE" unicode="Æ" d="M540 104c32 0 60 -28 60 -61c0 -56 -78 -84 -152 -84c-81 0 -143 20 -143 95c1 41 4 56 6 69l-96 27c-20 -92 -26 -133 -57 -137c-11 -21 -32 -36 -56 -36c-34 0 -50 29 -50 62c0 15 0 20 -1 25c-11 159 162 573 303 628c24 32 44 43 84 43c27 0 40 -3 67 -14 c41 0 65 -29 65 -61c0 -38 -26 -62 -75 -62c-22 -91 -41 -200 -48 -272c5 -1 22 -2 39 -2c40 0 52 6 62 6c33 0 63 -27 63 -62c0 -42 -41 -66 -90 -66c6 0 -48 -1 -84 4c-6 -30 -11 -98 -9 -124c73 0 79 22 112 22zM323 240c10 71 25 178 47 270h-13 c-35 -39 -83 -144 -107 -225l-6 -22z"></glyph><glyph glyph-name="B" unicode="B" d="M429 411c63 -41 102 -126 102 -207v-47c0 -47 -4 -57 -45 -103c-42 -51 -110 -82 -184 -82c-38 0 -81 15 -96 54c-128 4 -156 183 -156 332c0 230 5 411 154 411c15 0 31 -5 42 -16c11 3 23 5 34 5c90 0 180 -96 180 -218c0 -43 -11 -94 -31 -129zM256 632 c-4 -71 -6 -139 -6 -202v-8c66 25 94 70 94 113c0 44 -32 85 -88 97zM408 151v53c0 33 -17 88 -48 105c-8 5 -32 7 -59 7c-16 0 -33 -1 -49 -2c5 -94 14 -167 28 -202l50 -15c26 6 53 19 78 54z"></glyph><glyph glyph-name="C" unicode="C" d="M491 583c0 84 -97 156 -188 156c-17 20 -33 23 -60 23c-139 0 -193 -267 -193 -476c0 -161 135 -316 281 -316c17 0 33 4 44 13c8 -1 16 -2 24 -2c44 0 82 22 82 67c0 36 -33 60 -61 60c-9 0 -15 -3 -27 -3c-59 0 -127 92 -127 162c0 186 4 243 37 316c9 20 16 30 25 30 s21 -11 40 -32c1 -32 29 -60 62 -60c34 0 61 28 61 62z"></glyph><glyph glyph-name="Cacute" unicode="Ć" d="M238 770c0 37 37 59 63 90c54 56 57 72 93 72c33 0 60 -26 60 -61c0 -29 -20 -50 -63 -95c-22 -23 -55 -64 -82 -67c23 -12 -7 -2 73 -22c30 -6 48 -35 48 -60c0 -38 -31 -61 -62 -61c-17 0 -73 14 -93 23c-24 -66 -27 -121 -27 -216c0 -96 3 -271 75 -307 c9 0 23 14 30 29c12 22 36 32 55 32c36 0 61 -33 61 -63c0 -70 -95 -123 -176 -123c-136 0 -240 172 -243 327c0 92 5 197 30 269c42 116 87 170 141 172c5 0 9 0 14 -1c22 6 31 8 34 8c-16 5 -31 30 -31 54z"></glyph><glyph glyph-name="Ccaron" unicode="Č" d="M240 91c4 -1 8 -1 13 -1c12 0 26 2 35 5c43 -4 106 -17 106 -53c0 -55 -76 -87 -147 -87c-51 0 -86 12 -108 54c-85 78 -89 167 -89 308c0 188 15 234 103 336c15 18 25 23 48 36c-9 4 -12 9 -18 16c-34 19 -54 72 -66 135c17 37 40 86 72 86c15 0 26 -9 33 -17 c16 34 27 53 64 53c35 0 61 -26 61 -62c0 -28 -55 -134 -55 -140c2 -6 2 -12 2 -18c0 -31 -16 -51 -39 -58c50 -24 125 -82 125 -127c0 -38 -31 -62 -61 -62c-27 0 -36 9 -67 44c-11 -65 -15 -124 -16 -190c0 -184 0 -202 4 -258z"></glyph><glyph glyph-name="Ccedilla" unicode="Ç" d="M409 148c35 0 60 -26 60 -62c0 -25 -23 -58 -55 -82c-28 -14 -50 -24 -73 -29c13 -14 21 -33 21 -55c0 -77 -56 -120 -137 -120c-43 0 -67 27 -67 60c0 35 27 52 55 54v2c-8 2 -17 7 -21 18c-2 6 -4 12 -4 19c0 13 5 28 19 43c3 3 7 6 11 9c-126 57 -168 166 -168 345 c0 170 17 221 111 349c34 40 49 48 97 52c16 2 34 -5 47 -16h56c33 0 61 -27 61 -61c0 -33 -27 -62 -61 -62h-60c-42 -36 -62 -159 -62 -230c0 -117 16 -189 55 -269c10 -4 18 -11 25 -20l31 17c16 26 30 38 59 38z"></glyph><glyph glyph-name="Ccircumflex" unicode="Ĉ" d="M143 669c-45 0 -65 46 -65 87c0 10 10 66 17 96c10 62 20 102 82 96c56 -2 138 -130 138 -183c0 -33 -27 -62 -61 -62c-22 0 -39 11 -49 23c-1 -35 -33 -57 -62 -57zM289 522c-37 -38 -48 -94 -50 -159c0 -12 -1 -23 -1 -34c0 -97 18 -168 80 -244c20 -25 30 -43 30 -82 c0 -35 -18 -50 -46 -50c-204 0 -252 105 -252 437c1 150 8 268 145 268c81 0 197 -13 197 -84c0 -33 -27 -61 -61 -61c-10 0 -35 7 -42 9z"></glyph><glyph glyph-name="Cdotaccent" unicode="Ċ" d="M269 851c0 8 2 16 5 23c2 40 45 64 78 64c40 0 68 -31 68 -64c0 -40 -54 -86 -89 -86c-39 0 -62 31 -62 63zM486 583c0 -34 -27 -62 -61 -62c-33 0 -61 28 -62 60c-19 21 -34 32 -42 32c-33 0 -53 -160 -56 -215c-1 -24 -1 -38 -1 -153c0 -97 130 -106 130 -178 c0 -15 -8 -27 -29 -32l-5 -24c-12 -5 -31 -9 -48 -9c-169 0 -262 214 -262 413c0 179 91 347 200 347c19 0 35 -8 48 -23c94 0 188 -74 188 -156z"></glyph><glyph glyph-name="D" unicode="D" d="M185 729c-13 16 -31 23 -46 23c-28 0 -54 -19 -61 -47c-18 -87 -28 -212 -28 -329c0 -148 69 -378 159 -378c9 0 18 1 26 5c13 0 24 2 31 7c150 95 196 266 196 445c0 153 -81 293 -221 293c-45 0 -54 -19 -56 -19zM226 620c82 -26 119 -103 119 -190 c0 -88 -38 -186 -106 -256c-19 111 -27 176 -27 245c0 55 6 114 14 201z"></glyph><glyph glyph-name="Eth" unicode="Ð" d="M297 -12c-6 -2 -12 -3 -18 -3c-28 0 -51 19 -58 44c-30 19 -61 152 -71 198c-3 -1 -15 -2 -34 -4c-35 -3 -66 24 -66 62c0 30 23 57 55 60l24 3c-4 38 -6 89 -6 143c0 97 6 206 19 272c7 34 34 61 72 60c168 0 364 -262 366 -443c0 -184 -105 -392 -283 -392zM323 630 c-15 -26 -20 -89 -20 -146c0 -32 2 -62 4 -84c32 11 69 21 96 21c9 0 17 -1 23 -4c15 -8 26 -20 31 -36c-3 107 -48 184 -134 249zM454 337c-14 -31 -87 -53 -136 -64c2 -31 17 -101 34 -143c59 42 96 128 102 207z"></glyph><glyph glyph-name="Dcaron" unicode="Ď" d="M385 161c8 -12 12 -23 12 -36c0 -22 -10 -36 -26 -48l-17 -13c-13 -10 -30 -21 -51 -34c-6 -4 -41 -26 -54 -32l-42 -20c-19 -9 -35 -14 -47 -16c-6 -1 -15 -2 -21 -2s-13 1 -19 2c-10 1 -25 9 -34 16c-7 6 -20 22 -23 32c-2 6 -6 22 -8 34c-2 13 -3 24 -4 39 c-1 14 -1 31 -1 37v47c0 20 0 38 1 54c0 23 1 39 2 59l4 69c4 66 2 45 4 73c3 56 4 48 6 72l5 58c2 25 2 38 3 49v13l1 10l3 12c1 2 3 8 6 13c1 2 8 10 10 12s10 8 14 10c2 1 14 6 18 7c7 2 16 4 24 4s19 -2 29 -6l12 -3c7 -2 15 -5 24 -8c-6 7 -22 29 -33 47 c-20 32 -30 58 -40 97l-3 6l-6 15c-8 18 -5 13 -7 21c0 2 -1 1 -1 14v7c0 5 3 15 9 23c5 7 10 11 22 15c13 5 21 6 39 7c14 0 32 -2 41 -4c7 -2 17 -9 19 -12s4 -9 5 -14c1 -6 0 -9 -1 -12l-3 -4c5 -13 12 -28 20 -44c5 -12 12 -25 20 -38c7 11 14 24 21 37 c17 38 30 63 37 75l9 16c11 19 22 23 38 28c5 2 10 3 16 3c37 0 61 -33 61 -64c0 -69 -121 -246 -192 -254l12 -11c10 -9 7 -5 11 -10c1 -2 7 -8 10 -13l9 -14c10 -14 5 -8 10 -16l10 -16l11 -18c3 -5 6 -13 11 -19c36 -63 54 -125 54 -190c0 -60 -15 -116 -40 -162z M221 540c-14 -92 -21 -187 -21 -285c0 -46 1 -91 4 -138c61 39 98 148 98 219c0 90 -60 171 -81 204z"></glyph><glyph glyph-name="Dcroat" unicode="Đ" d="M510 624c29 -45 41 -102 42 -137c0 -168 -50 -476 -217 -487c-8 -5 -24 -15 -48 -17c-3 -3 -6 -5 -10 -7c-10 -6 -21 -9 -32 -9c-21 0 -42 11 -53 29l-12 20c-23 39 -23 52 -26 83c-2 15 -3 27 -3 35v117l-41 -6c-33 -4 -61 27 -60 61c-1 33 28 57 62 62l39 6 c0 54 2 69 9 134c8 76 16 127 21 159c4 21 9 37 14 47l4 7c9 18 29 28 48 28c12 0 24 -4 33 -12l8 -7c4 1 8 2 12 2c28 3 92 -5 133 -32c39 -24 50 -36 77 -76zM429 484c0 42 -19 96 -103 96c0 -18 0 -93 1 -177c24 4 41 8 55 8c8 0 16 -1 23 -6c9 -6 15 -12 19 -19 c4 46 5 84 5 98zM332 131c47 0 72 90 84 180c-18 -19 -50 -30 -88 -36c1 -72 3 -132 4 -144z"></glyph><glyph glyph-name="E" unicode="E" d="M204 717c-12 10 -26 16 -42 16c-31 0 -58 -25 -61 -56c-1 -8 -2 -13 -4 -18c-41 -149 -47 -190 -47 -348v-191c0 -53 23 -86 64 -86c16 0 32 7 43 18c38 -48 76 -59 154 -59c49 0 93 22 93 68c0 38 -31 61 -63 61c-13 0 -20 -3 -26 -6c-29 0 -37 1 -56 5 c0 36 -1 61 -1 83c0 31 1 55 2 92h47c33 0 61 28 61 61s-28 62 -61 62h-40c3 47 10 148 13 179c0 1 113 -26 112 -26c31 0 61 24 61 61c0 26 -17 50 -42 59c-26 9 -73 17 -136 32c-18 4 -24 5 -31 5c-29 0 -33 -12 -40 -12z"></glyph><glyph glyph-name="Eacute" unicode="É" d="M394 642c0 -17 -6 -32 -18 -44s-27 -18 -44 -18h-23c-11 1 -23 4 -36 10l-1 -15l-1 -7c-2 -32 -5 -67 -10 -106c-3 -24 -6 -46 -8 -67c11 -1 21 -3 30 -5l13 -1l10 -1c17 0 31 -6 43 -18c11 -12 17 -27 17 -43c0 -18 -7 -33 -19 -44c-13 -12 -27 -18 -44 -18l-10 1 c-10 0 -21 1 -32 3l-20 3l-2 -17c-3 -40 -5 -69 -5 -86v-79h9c3 0 6 0 7 1l21 7c11 4 22 6 34 6h9c17 1 31 -5 43 -17s19 -27 19 -45c0 -16 -6 -30 -18 -42s-26 -18 -43 -19h-7l-13 -5c-15 -6 -33 -9 -52 -9c-13 0 -26 0 -38 1c-16 1 -30 4 -42 8c-11 4 -22 11 -31 22h-4 c-8 0 -17 2 -25 6l-7 4c-22 11 -36 28 -42 51c-3 10 -4 23 -4 40v124c0 38 4 103 13 195c8 91 14 149 19 173c5 27 10 47 16 62c5 14 12 26 20 37c15 21 33 34 56 37l9 2c3 0 6 1 9 1c9 0 19 -3 28 -8c5 1 12 1 20 1l2 -1c-13 7 -22 17 -28 30c-4 9 -6 17 -6 26 c0 5 1 10 2 15l3 12c4 16 13 33 26 51c9 12 18 23 27 32l11 13c12 14 28 21 47 21c15 0 28 -5 40 -15c14 -12 21 -28 21 -47c0 -16 -6 -29 -16 -40l-11 -13c-7 -7 -14 -16 -21 -26l-5 -8l-3 -11c-3 -11 -8 -20 -16 -28s-17 -13 -28 -16c7 -2 14 -5 21 -8l15 -7h11 c17 0 32 -6 44 -18s18 -26 18 -43z"></glyph><glyph glyph-name="Ecaron" unicode="Ě" d="M386 646c0 -22 -10 -39 -27 -51c-11 -8 -22 -11 -34 -11c-5 0 -9 0 -13 1l-7 2h-4c-3 -1 -7 -1 -10 -1v-81l-1 -98v-4c3 0 5 0 8 1l35 1h10c17 -1 31 -7 43 -20c11 -12 16 -26 16 -41c0 -18 -7 -33 -19 -45c-13 -12 -27 -18 -44 -17h-11l-20 -1c-8 -1 -15 -1 -21 -1 l-3 -81l-3 -63c-1 -9 -1 -20 -1 -35v-8c3 0 6 0 8 1l24 4c4 1 8 1 12 1c12 0 23 -3 34 -11c17 -12 26 -29 26 -50c0 -13 -4 -25 -12 -36c-10 -14 -23 -22 -39 -25l-7 -1l-14 -3c-10 -2 -22 -3 -35 -3l-32 -1h-4c-4 -1 -8 -1 -12 -1c-16 0 -31 6 -46 19 c-7 -13 -18 -21 -31 -26c-7 -3 -14 -4 -21 -4c-9 0 -17 2 -25 5c-16 7 -27 19 -33 35l-3 9c-4 11 -7 21 -8 31l-2 14c-1 5 -3 14 -5 26c-3 15 -4 29 -5 42v125c0 10 1 28 2 54s3 52 6 79l8 80c3 30 7 58 12 84c5 22 8 39 10 51c3 15 5 27 7 34l2 8c5 16 15 28 30 37 c9 5 19 8 29 8c6 0 11 -1 17 -3c5 -1 10 -3 14 -6l4 5c-7 3 -14 8 -19 14l-7 7c-7 7 -13 16 -20 26c-7 11 -14 24 -19 38l-9 26c-4 11 -8 22 -11 33l-5 3c-1 1 -2 4 -2 9c0 10 3 23 13 39c9 17 20 29 31 35c7 4 13 6 19 6c4 0 7 -1 10 -2c9 -3 17 -8 24 -13 c7 -6 13 -12 17 -17l6 -9c3 6 6 11 7 15l10 23l4 7c7 15 19 26 36 31c6 2 13 3 20 3c9 0 18 -2 27 -6c15 -7 25 -19 30 -35c2 -7 3 -14 3 -21c0 -9 -2 -18 -6 -26l-4 -8l-6 -14c-4 -9 -9 -21 -16 -36c-6 -12 -12 -25 -18 -39c-7 -19 -15 -33 -22 -44l-9 -11h21h9 c8 0 17 -1 24 -2l7 -1c17 -3 30 -12 40 -26c7 -11 10 -22 10 -34z"></glyph><glyph glyph-name="Ecircumflex" unicode="Ê" d="M424 573c0 -17 -6 -32 -18 -44s-26 -18 -43 -18h-7c-15 0 -30 4 -46 12l-4 1c-1 -15 -3 -35 -6 -60c-3 -37 -6 -74 -8 -113l-2 -37h13c19 1 36 0 50 -5l8 -3c16 -6 28 -17 35 -32c4 -9 6 -17 6 -26c0 -7 -1 -14 -3 -21c-6 -16 -17 -28 -32 -35c-8 -4 -17 -6 -26 -6 c-7 0 -14 1 -21 4l-5 2c-1 0 -3 0 -4 -1l-29 -1c-1 -9 -1 -18 -1 -27c-2 -32 -3 -55 -3 -70v-58h25c7 0 12 0 15 1l10 2c4 1 7 1 10 1c13 0 25 -4 36 -12c17 -12 27 -29 27 -51c0 -12 -4 -23 -12 -34c-10 -14 -23 -22 -40 -25l-10 -2c-10 -2 -22 -3 -36 -3h-23l-25 1 c-23 1 -43 8 -60 21c-10 -8 -22 -12 -35 -12c-20 0 -37 8 -49 22l-5 6c-10 12 -17 26 -20 43l-3 10c-4 9 -8 18 -13 28c-7 14 -12 27 -15 38c-3 13 -5 30 -5 52v61c0 25 1 57 4 98s9 85 16 131c9 47 18 87 29 120c11 35 24 63 38 83l5 10c3 5 5 9 8 12l12 12c5 5 11 8 18 11 c-13 3 -24 11 -33 22s-14 23 -14 38v32c0 11 1 24 2 38c1 16 3 31 6 44s6 24 9 34l3 11c1 7 3 14 5 19c7 24 23 41 50 51c9 4 19 6 28 6c8 0 16 -2 25 -5c17 -7 30 -16 40 -27c11 -13 19 -26 24 -37l13 -30c5 -13 10 -27 14 -40l5 -17c2 -6 3 -12 3 -18c0 -10 -3 -20 -8 -29 c-8 -15 -20 -25 -36 -30c-6 -2 -13 -3 -19 -3c-15 0 -28 6 -41 17v-16c0 -25 -11 -43 -33 -55c11 -1 22 -4 31 -11c5 1 9 1 13 1h10c6 0 13 0 19 -1l30 -6c15 -4 27 -8 37 -13c17 0 31 -6 43 -18s18 -26 18 -43z"></glyph><glyph glyph-name="Edieresis" unicode="Ë" d="M133 770c-7 11 -11 22 -11 35c0 22 8 40 25 52l15 10c10 8 21 11 33 11c22 0 41 -9 52 -26c8 -10 12 -22 12 -35c0 -22 -10 -38 -25 -50l-15 -10c-11 -8 -23 -12 -35 -12c-23 0 -39 9 -51 25zM416 855c13 -13 19 -29 19 -48c0 -15 -5 -28 -16 -39l-6 -7 c-12 -12 -28 -18 -47 -18c-28 0 -48 9 -60 27l-5 7c-7 11 -10 22 -10 34c0 22 9 41 26 52c11 7 22 10 34 10c6 0 11 0 17 -2c19 1 35 -4 48 -16zM366 662c0 -17 -6 -31 -18 -43c-13 -13 -27 -19 -44 -19h-3l-10 -55c-5 -29 -9 -60 -12 -91c-3 -30 -4 -55 -4 -74v-41l17 2 l12 3c5 1 10 2 15 2c11 0 22 -3 32 -9c19 -12 29 -29 29 -52c0 -12 -3 -23 -9 -33c-9 -15 -22 -24 -39 -28l-12 -2c-11 -3 -26 -5 -43 -6h-2v-28c0 -31 0 -55 1 -72c0 -13 0 -22 1 -26l1 -3c3 1 5 1 7 2c8 5 16 9 25 13l13 6c8 4 16 5 25 5c7 0 14 -1 22 -3 c16 -6 28 -17 35 -32c3 -8 5 -17 5 -25c0 -7 -1 -15 -4 -22c-6 -16 -16 -28 -31 -35l-35 -16c-13 -7 -27 -11 -42 -14c-12 -2 -22 -3 -30 -3c-7 0 -15 0 -23 1c-19 2 -36 10 -51 23c-13 11 -22 27 -29 46c-7 -3 -15 -5 -22 -5c-6 0 -11 1 -16 3c-14 3 -25 10 -34 21l-5 7 c-6 7 -12 16 -17 25c-6 11 -11 25 -15 42c-4 15 -6 29 -6 42v62c0 22 1 41 2 56c1 17 5 39 11 68l14 71c5 19 10 42 16 69s12 50 17 71c6 23 13 44 22 63c7 16 15 30 22 43l10 17c7 12 16 21 29 26c7 3 15 5 23 5c5 0 10 -1 15 -2c9 4 17 6 25 6h48c17 0 31 -6 44 -18 c12 -12 18 -26 18 -43z"></glyph><glyph glyph-name="Edotaccent" unicode="Ė" d="M273 793c-16 6 -27 17 -33 33c-3 9 -5 17 -5 25s2 16 5 23c1 23 13 40 36 52c15 8 29 12 42 12c6 0 12 -1 18 -3c6 -1 12 -3 18 -6c15 -9 24 -21 29 -37c2 -6 3 -12 3 -18c0 -10 -3 -19 -9 -29l-4 -7c-4 -7 -10 -15 -18 -22c-9 -9 -18 -15 -28 -20l-7 -3 c-7 -3 -15 -5 -23 -5s-16 2 -24 5zM208 718c-1 -1 -3 -1 -4 -1c-12 10 -26 16 -42 16c-31 0 -58 -25 -61 -56l-1 -6c0 -3 -1 -7 -3 -12l-12 -41c-9 -35 -13 -49 -24 -110c-9 -63 -11 -129 -11 -197v-191c0 -9 1 -18 2 -25l1 -8c2 -17 10 -30 24 -40c12 -9 25 -13 37 -13 c16 0 32 7 43 18l8 -12c24 -29 74 -45 101 -45c3 0 9 0 18 -1c9 0 18 -1 27 -1c16 0 33 2 49 9l7 3c23 10 37 32 37 56c0 38 -31 61 -63 61c-8 0 -16 -1 -23 -4l-3 -2c-6 0 -13 0 -21 1c-11 1 -20 1 -27 1l-8 3l-1 1v82c0 25 1 55 2 92h47c33 0 61 28 61 61s-28 62 -61 62 h-40c3 47 10 148 13 179c3 -1 7 -1 10 -2c23 -4 43 -9 52 -12c5 -1 12 -3 19 -6l12 -3c6 -2 13 -3 19 -3c31 0 61 24 61 61c0 26 -17 50 -42 59l-12 3c-8 3 -15 5 -21 7c-13 4 -40 11 -68 15c-11 2 -23 4 -35 7l-19 4c-4 1 -8 1 -12 1c-13 0 -25 -3 -36 -11z"></glyph><glyph glyph-name="Egrave" unicode="È" d="M321 609c-8 -15 -20 -25 -36 -30c-7 -2 -13 -3 -19 -3c-10 0 -20 2 -29 7l-7 4l-10 4l-10 2l-1 -2c-2 -16 -3 -34 -2 -55c0 -22 2 -44 5 -65c4 -25 8 -59 12 -100l3 -33c7 1 15 2 22 3l16 3c4 1 8 1 12 1c12 0 23 -3 34 -10c17 -12 27 -29 27 -51c0 -12 -4 -24 -11 -34 c-9 -15 -22 -23 -39 -26l-15 -3c-11 -3 -23 -5 -34 -6h-4l3 -73c1 -21 1 -41 2 -59l1 -5l7 -3c14 -5 25 -7 32 -8l9 3c7 4 13 9 20 14l15 11c11 9 23 13 37 13c21 0 38 -8 49 -23c8 -11 12 -23 13 -37c0 -21 -9 -38 -24 -50l-11 -8c-1 -16 -7 -30 -19 -41s-26 -16 -42 -16 h-26l-20 -1c-9 -1 -17 -1 -24 -2c-10 -1 -20 -1 -31 -1h-21c-12 0 -24 2 -35 6c-14 5 -26 14 -37 27c-7 9 -14 18 -19 29c-3 7 -8 17 -14 32s-12 35 -19 61c-7 25 -14 56 -19 91c-5 36 -8 62 -9 78l-2 70c0 31 0 58 -1 79c0 23 0 47 1 72c1 29 3 51 7 64l6 23 c3 16 8 30 15 43l12 24c4 19 11 36 21 50c13 17 28 28 45 34l-11 8l-27 18c-18 12 -31 25 -39 39c-3 7 -6 13 -8 20l-3 7c-3 7 -4 15 -4 22c0 9 2 17 6 26c7 15 18 26 34 32c7 2 14 3 21 3c9 0 17 -1 26 -5c15 -7 26 -18 32 -34l3 -7c9 -6 18 -12 28 -18 c11 -8 21 -16 30 -24l10 -8c13 -12 20 -27 20 -47c0 -14 -4 -27 -13 -38c9 -3 18 -6 26 -10l7 -4c15 -8 25 -20 30 -36c1 -7 2 -13 2 -20c0 -9 -2 -18 -6 -27z"></glyph><glyph glyph-name="Emacron" unicode="Ē" d="M50 769c0 17 6 31 18 44c12 12 27 18 44 18h24c13 0 29 2 49 5c21 4 42 9 63 16c21 6 35 11 44 15l33 12l20 7l12 4c7 3 13 4 20 4c9 0 18 -2 27 -6c15 -8 26 -20 32 -35c2 -7 3 -14 3 -21c0 -9 -2 -17 -6 -26c-7 -15 -19 -26 -35 -32l-12 -4c-8 -3 -16 -6 -24 -8 c-5 -1 -12 -4 -21 -8c-13 -6 -32 -13 -57 -20c-25 -8 -51 -14 -77 -19c-27 -5 -51 -7 -71 -7h-24c-17 0 -32 6 -44 18s-18 26 -18 43zM445 660c0 -17 -6 -31 -18 -43c-13 -13 -27 -19 -44 -19h-73c-1 0 -1 -3 -1 -10c0 -19 1 -44 4 -73l12 -133c0 -5 0 -11 1 -16h76 c17 0 31 -6 43 -18s18 -26 18 -43s-6 -32 -18 -44s-26 -18 -43 -18h-69v-150c0 -11 0 -20 1 -29h39l12 5l6 3c8 4 16 5 24 5s15 -1 23 -4c16 -6 28 -17 35 -32c3 -8 5 -16 5 -24s-1 -15 -4 -23c-7 -16 -18 -28 -33 -35l-7 -2l-11 -6c-14 -7 -33 -10 -56 -10h-43 c-23 0 -43 4 -60 11c-11 5 -21 13 -29 23l-8 -3c-4 -1 -9 -1 -13 -1c-11 0 -22 3 -33 9c-15 9 -24 22 -28 38l-3 13l-7 25c-4 14 -8 30 -11 49l-13 88c-7 44 -10 84 -10 121c0 35 1 73 2 116c1 44 5 85 10 123c2 18 4 31 5 38s4 17 7 28s8 21 13 30l10 16c7 11 16 19 27 24 c8 4 17 6 25 6c3 0 7 0 10 -1l4 3c19 16 39 24 60 24h101c17 0 31 -6 44 -18c12 -12 18 -26 18 -43z"></glyph><glyph glyph-name="Eogonek" unicode="Ę" d="M360 682c0 -17 -6 -31 -18 -43c-13 -13 -27 -19 -44 -19h-17v-5c-3 -19 -5 -37 -6 -52l-11 -138l25 -5c10 -2 17 -3 21 -3h6c17 0 31 -6 44 -18c12 -13 18 -27 18 -44s-6 -31 -18 -43c-13 -12 -27 -18 -44 -18h-7c-9 0 -24 2 -43 5l-11 2l-3 -49l-3 -76 c-1 -11 -1 -22 -1 -31v-30c0 -4 0 -7 1 -8c1 -3 2 -7 5 -12l6 -5c3 -2 5 -4 7 -5c7 -1 13 -3 20 -7h40l8 10c4 3 8 4 12 4c13 0 27 -17 42 -52c7 -18 11 -33 11 -44c0 -14 -5 -24 -13 -31c-7 -5 -15 -9 -23 -10s-15 -2 -22 -2l-11 1h-1l-5 -10c-3 -8 -6 -18 -9 -29l-4 -22 c0 -1 1 -3 2 -6c1 -1 2 -1 3 -1l3 4c11 17 28 26 50 26c13 0 25 -4 36 -12c16 -11 25 -28 25 -51c0 -12 -4 -24 -11 -34l-9 -13c-13 -17 -27 -29 -42 -36c-12 -5 -27 -7 -46 -7c-25 0 -49 5 -70 16c-8 4 -15 9 -22 15c-14 13 -25 28 -32 47s-10 36 -10 51c0 13 2 30 7 51 l4 16c-13 0 -23 1 -32 3c-17 5 -33 15 -47 31l-19 24c-7 9 -12 16 -16 23c-5 7 -10 16 -16 29c-9 17 -14 37 -17 60c-2 19 -3 45 -3 78v69c0 16 1 38 2 67c1 30 4 60 9 90c5 29 11 58 18 88l15 65c3 17 7 32 11 47l7 29c3 11 6 21 11 30c7 12 16 23 28 32l8 6 c11 9 23 14 36 14c8 0 17 -2 26 -6c10 3 20 5 29 5h48c17 0 31 -6 44 -18c12 -12 18 -26 18 -43z"></glyph><glyph glyph-name="F" unicode="F" d="M148 745c-6 2 -12 3 -17 3c-30 0 -57 -24 -60 -56c0 -14 -21 -286 -21 -377c0 -107 1 -149 42 -239c16 -34 41 -45 64 -42c12 -21 34 -34 56 -34c36 0 60 31 60 62c0 59 -14 49 -25 202c-1 19 -1 37 -2 52h38c33 0 62 28 62 62s-29 61 -62 61h-39c0 10 3 100 3 153 c13 -8 44 -17 58 -17c31 0 62 24 62 60c0 28 -21 47 -46 61c-51 28 -99 54 -147 56c-8 0 -17 -2 -26 -7z"></glyph><glyph glyph-name="G" unicode="G" d="M518 347c15 -27 16 -47 16 -82v-211c0 -12 -4 -23 -11 -34c-7 -25 -31 -45 -59 -45c-43 0 -81 4 -96 9c-10 -8 -22 -11 -33 -11c-12 0 -20 3 -40 9c-36 9 -49 13 -74 33c-140 108 -171 148 -171 268c0 181 130 477 276 477c19 0 35 -9 48 -25c5 0 11 0 18 -1l9 -1 c31 -4 56 -31 56 -62c0 -33 -29 -60 -62 -60c-19 0 -31 -1 -37 -7c-64 -46 -117 -207 -117 -300c0 -118 52 -170 160 -202l9 146c-15 -7 -51 -23 -61 -23c-14 0 -22 9 -28 26c-26 9 -43 32 -43 58c0 61 73 78 143 78c53 0 79 -7 97 -40z"></glyph><glyph glyph-name="Gbreve" unicode="Ğ" d="M176 626c9 13 19 22 31 29l-2 1l-16 10c-17 10 -30 22 -41 37c-7 8 -12 16 -17 23l-11 14c-5 6 -13 24 -13 43c0 16 6 34 23 48c10 8 22 12 33 12c21 0 42 -12 58 -31c5 -4 11 -8 18 -13c3 -2 6 -3 9 -4c5 10 8 18 9 23l2 21c2 16 10 29 24 40c11 9 24 14 38 14 c19 0 35 -8 47 -23c11 -14 15 -29 14 -46l-3 -20c-2 -21 -9 -43 -22 -67l-11 -21c-3 -5 -7 -11 -14 -18s-15 -13 -24 -18c-6 -3 -13 -5 -21 -8l-7 -8c1 0 3 0 4 -1c13 -2 23 -5 32 -10c8 -3 18 -10 30 -19l25 -18l9 -7c16 -12 24 -28 24 -50c0 -13 -4 -25 -12 -36 c-13 -16 -29 -24 -51 -24c-13 0 -25 4 -36 12l-9 7c-5 5 -13 10 -22 17l-3 2c-1 -3 -1 -7 -3 -10c-18 -21 -21 -76 -21 -104v-91l60 2h1c11 7 23 11 36 11s25 -4 36 -12l11 -8c15 -12 28 -27 38 -46c11 -22 13 -49 13 -80c0 -46 -12 -119 -27 -145c-12 -21 -25 -39 -38 -55 c-13 -15 -25 -28 -37 -39c-21 -18 -43 -27 -65 -27s-41 8 -56 22c-5 0 -9 0 -13 1l-11 3c-17 3 -33 10 -46 21c-9 7 -21 20 -34 37c-12 16 -21 29 -27 39s-13 28 -21 53c-9 27 -15 54 -16 82c-1 23 -1 54 -1 95s2 83 6 127c5 45 10 78 16 99c5 21 11 37 17 50 c6 11 12 21 18 30l7 10c7 10 17 17 28 22c7 2 14 4 21 4c4 0 9 -1 13 -2zM316 211l-69 4c0 -33 6 -99 38 -134c8 10 18 21 24 35c12 28 16 50 16 67c0 13 -3 22 -6 27v1h-3z"></glyph><glyph glyph-name="Gcircumflex" unicode="Ĝ" d="M480 202c1 -6 2 -12 1 -19c-7 -51 -23 -83 -49 -116c-7 -11 -18 -24 -31 -37c-15 -15 -31 -28 -50 -40c-27 -17 -54 -26 -82 -26c-24 0 -45 5 -63 15c-7 4 -14 8 -20 13c-4 -1 -7 -1 -10 -1c-17 0 -31 6 -43 18l-9 10l-19 20c-5 6 -11 13 -17 22c-5 7 -12 17 -19 29 c-13 21 -19 43 -19 68v94c0 19 1 41 3 66c1 25 4 52 8 81s9 55 15 79c6 22 12 43 19 64c5 19 11 37 16 53c4 14 7 25 10 32c4 14 10 27 18 38c4 7 9 13 15 18c-13 8 -21 19 -26 34c-2 6 -3 12 -3 18c0 9 2 17 6 25l5 13l20 40c7 13 12 27 17 42c5 17 8 30 10 40 c3 13 5 22 7 29c3 9 7 17 11 25c13 23 30 35 51 35c14 0 30 -6 48 -16l13 -9c11 -11 22 -25 32 -41c9 -14 16 -28 22 -41c7 -15 13 -30 16 -45c10 -12 15 -26 15 -40c0 -19 -7 -34 -20 -46c-12 -10 -25 -15 -40 -15c-18 0 -35 6 -47 19l-6 7c-4 4 -8 10 -12 17 c-2 -6 -4 -12 -7 -17c-8 -15 -14 -26 -17 -34c12 5 29 6 51 5c26 -3 47 -9 64 -20l11 -7c17 -11 27 -28 27 -52c0 -12 -3 -23 -10 -33c-11 -18 -29 -27 -53 -27c-11 0 -22 3 -31 9l-10 -36c-7 -31 -12 -56 -15 -74s-6 -36 -8 -54l-7 -81c0 -6 -1 -11 -1 -18 c8 11 18 19 31 23c6 2 12 3 18 3c8 0 16 -2 23 -5c45 -22 75 -57 82 -64l7 -7l9 -10c1 -2 4 -6 30 -42c4 -6 7 -11 8 -15zM284 93c11 7 69 72 63 81l-22 35l-13 12l-13 5c-13 5 -25 14 -35 27c-1 -33 -1 -75 -2 -131c0 -11 1 -19 2 -26l2 -9h4c4 0 9 2 14 6z"></glyph><glyph glyph-name="Gcommaaccent" unicode="Ģ" d="M321 246c6 -2 13 -3 19 -3c9 0 18 2 27 7l12 6c8 1 17 8 32 8v-163c-4 1 -8 1 -12 2c-9 1 -15 3 -18 4c-13 5 -47 18 -70 33c-19 13 -33 31 -48 60c-11 22 -22 64 -22 104c0 41 18 128 25 150c5 20 37 82 64 117c12 17 21 28 28 33c44 35 58 65 58 87c0 30 -25 46 -42 44 c-13 16 -29 25 -48 25c-3 0 -6 -1 -9 -1h-6c-13 -2 -28 -8 -44 -17c-28 -17 -56 -51 -71 -67c-11 -11 -25 -29 -44 -54c-37 -52 -50 -75 -70 -143c-20 -67 -32 -136 -32 -195c0 -64 18 -119 38 -148c13 -19 42 -49 69 -69l64 -51c25 -20 38 -24 74 -33l23 -7 c6 -2 11 -2 17 -2c11 0 23 3 33 11c3 -1 6 -1 9 -2c33 -7 56 -7 75 -7h12c28 0 52 20 59 45c7 11 11 22 11 34v211c0 35 -1 55 -16 82s-45 40 -72 40h-25c-19 0 -64 -3 -97 -21l-13 -7c-15 -7 -25 -19 -30 -35c-2 -7 -3 -13 -3 -20c0 -26 17 -49 43 -58zM326 -232 c15 9 24 21 29 37l4 18c8 25 9 26 11 32c4 12 6 24 6 34c0 32 -20 53 -57 53c-24 0 -44 -10 -63 -44c-1 0 -16 -29 -17 -39l-3 -23c-1 -5 -1 -10 -1 -15c0 -11 2 -21 8 -31c11 -19 32 -30 53 -30c10 0 21 2 30 8z"></glyph><glyph glyph-name="Gdotaccent" unicode="Ġ" d="M316 793c-16 6 -27 17 -33 33c-3 9 -5 17 -5 25s2 16 5 23c1 23 13 40 36 52c15 8 29 12 42 12c6 0 12 -1 18 -3c6 -1 12 -3 18 -6c15 -9 24 -21 29 -37c2 -6 3 -12 3 -18c0 -10 -3 -19 -9 -29l-4 -7c-4 -7 -10 -15 -18 -22c-9 -9 -18 -15 -28 -20l-7 -3 c-7 -3 -15 -5 -23 -5s-16 2 -24 5zM512 347c15 -27 16 -47 16 -82v-211c0 -12 -4 -23 -11 -34c-7 -25 -31 -45 -59 -45h-12c-19 0 -42 0 -75 7c-3 1 -6 1 -9 2c-10 -8 -22 -11 -33 -11c-6 0 -11 0 -17 2l-23 7c-36 9 -49 13 -74 33l-64 51c-27 20 -57 49 -69 69 c-25 41 -32 96 -32 144c0 46 7 85 10 98c7 28 15 53 23 77c9 21 17 41 26 61c7 19 15 36 21 51c6 14 10 24 14 31c5 14 19 25 29 35c4 7 10 12 16 17c24 11 35 28 66 30c6 2 18 3 32 3c16 0 33 -1 45 -3c26 -6 46 -14 62 -27l10 -8c14 -11 22 -26 22 -45 c0 -16 -5 -30 -14 -41c-11 -15 -28 -22 -48 -22c-25 0 -44 11 -55 33l-3 -9l-28 -77c-9 -31 -19 -55 -24 -73c-7 -30 -15 -69 -15 -112c0 -32 4 -66 18 -98c13 -31 29 -47 48 -60c23 -15 57 -28 70 -33c9 19 22 72 30 157c-8 -3 -26 -6 -45 -6s-40 3 -54 8 c-23 9 -37 32 -37 55c0 9 2 18 7 27c14 27 45 40 123 40c12 0 26 0 41 -1c27 -1 57 -13 72 -40z"></glyph><glyph glyph-name="H" unicode="H" d="M386 721c0 -26 2 -45 9 -75c8 -38 11 -120 11 -268c-22 3 -40 3 -138 6c0 0 -12 245 -12 310c0 33 -28 62 -61 62c-16 0 -30 -6 -42 -17c-9 5 -18 7 -27 7c-33 0 -62 -29 -62 -62c0 -32 -14 -183 -14 -267c0 -171 3 -237 15 -280c31 -108 55 -188 119 -188 c32 0 61 26 60 64c26 8 45 33 45 60c0 4 -20 82 -20 187c4 0 58 -6 137 -6c0 -89 14 -150 14 -202c0 -35 28 -62 62 -62s61 27 61 62c0 23 -1 34 -3 52c-11 69 -11 149 -11 235v119c0 95 -7 182 -20 249v14c0 33 -28 61 -61 61s-62 -27 -62 -61z"></glyph><glyph glyph-name="Hbar" unicode="Ħ" d="M813 593c12 -13 18 -27 18 -44s-6 -31 -18 -43s-27 -18 -44 -18c-25 2 -53 3 -84 4v-9c1 -40 1 -75 4 -128l2 -105c2 -46 2 -87 2 -118c0 -26 0 -46 -1 -57c-1 -12 -2 -27 -4 -44c-1 -51 -26 -68 -59 -68c-5 0 -10 0 -15 1c-45 5 -55 32 -55 149c0 38 1 84 3 142 c-40 0 -98 0 -128 1c-7 1 -18 2 -32 3c-3 1 -7 1 -10 1c0 -43 2 -103 6 -120c5 -16 8 -30 10 -42l3 -15c1 -3 1 -8 1 -12c0 -41 -22 -122 -110 -122c-17 0 -32 8 -43 21l-8 9c-19 23 -25 37 -30 53c-2 6 -4 13 -7 21c-5 13 -15 45 -26 84c-13 45 -15 146 -15 193v87v73 c-14 -1 -27 -1 -39 -2h-22c-17 0 -31 6 -43 18c-13 12 -19 26 -19 43c0 49 31 63 84 62c15 1 31 2 48 2c2 19 4 33 4 42c1 11 1 19 1 22v7c0 47 37 72 131 72c33 0 61 -29 61 -62v-26c0 -15 1 -32 2 -50h71c39 0 78 0 115 -1c1 10 2 20 2 30c1 15 3 29 4 40l1 17 c1 7 2 16 4 25l1 10c6 30 33 52 62 52c34 0 61 -29 61 -62c0 -4 0 -7 -1 -11l-2 -10c0 -6 0 -9 -1 -11c-1 -7 -2 -16 -4 -27c0 -7 -1 -16 -1 -28c-1 -10 -2 -19 -2 -27c28 -1 55 -3 78 -4c17 -1 32 -6 44 -18zM562 481v13c-36 1 -73 1 -110 1h-64c1 -38 3 -78 3 -111l107 -3 c4 0 37 0 66 -1c0 35 -1 64 -2 101z"></glyph><glyph glyph-name="Hcircumflex" unicode="Ĥ" d="M298 697c-11 0 -21 4 -32 10c-15 9 -24 21 -28 38l-4 19c-3 10 -4 19 -4 29c0 17 4 34 11 51c5 12 9 25 13 38c5 19 9 33 14 44c8 19 24 32 47 39c8 3 16 4 24 4c14 0 26 -4 37 -11c13 -9 24 -19 33 -31c7 -9 14 -18 19 -27l6 -10c6 -10 9 -20 9 -31 c0 -26 -11 -42 -30 -54c-10 -6 -20 -9 -31 -9c-8 0 -17 2 -26 6l-2 -5c-1 -1 -1 -3 -1 -4l5 -19c1 -5 2 -10 2 -14c0 -12 -4 -22 -10 -33c-11 -19 -27 -30 -52 -30zM517 733c20 0 35 -8 46 -23c11 -14 15 -29 13 -46l-2 -16c-1 -9 -2 -23 -3 -42s-1 -45 -1 -76 c1 -33 1 -67 1 -103s-1 -78 -2 -125c-1 -50 -4 -95 -9 -134s-9 -63 -12 -74l-12 -42c-5 -17 -7 -27 -8 -32c-2 -11 -5 -23 -10 -37l-5 -15c-6 -16 -17 -28 -32 -35c-9 -4 -18 -6 -27 -6c-7 0 -13 1 -20 3c-16 6 -28 17 -35 32c-4 8 -6 17 -6 26c0 7 1 14 4 21l5 15l2 5 c-19 12 -29 29 -29 52v8l-1 26c-1 15 -1 35 -1 60v76l-145 4v-187c5 -6 9 -13 12 -20s4 -14 4 -21c0 -9 -2 -18 -6 -26c-8 -15 -19 -26 -34 -32l-10 -4c-5 -1 -11 -2 -16 -2c-13 0 -26 4 -39 13c-18 12 -29 25 -31 40c-2 9 -3 25 -3 46v222h-3c-17 3 -30 11 -40 25 c-8 11 -12 23 -12 35c0 17 6 33 19 46c11 9 23 15 37 16l2 78c2 49 5 84 10 105l6 27c4 17 13 30 27 39c11 6 21 9 33 9c24 0 40 -11 52 -28c7 -11 11 -22 11 -34c0 -4 -1 -8 -2 -12l-6 -27c-4 -15 -7 -43 -8 -84l-2 -97c4 -1 138 -2 141 -3l3 -1c1 20 1 40 2 59l3 127 c1 37 1 59 1 67v12c0 17 6 32 18 44s26 18 43 18c7 0 14 -1 21 -4c6 11 15 19 26 25c9 5 19 7 30 7z"></glyph><glyph glyph-name="I" unicode="I" d="M96 600v-105c0 -79 9 -390 18 -413c-40 -4 -60 -33 -60 -61c0 -44 31 -59 91 -59c9 0 74 11 100 22c27 11 45 33 45 60c0 13 -4 20 -6 27c8 11 12 24 12 37c0 94 0 124 3 165c2 29 16 411 16 427c0 33 -29 62 -62 62c-14 0 -27 -5 -38 -14c-10 -2 -18 -2 -26 -2 c-15 0 -25 2 -31 2c-13 0 -25 -4 -36 -13c-43 -5 -72 -42 -72 -75c0 -28 19 -52 46 -60z"></glyph><glyph glyph-name="Iacute" unicode="Í" d="M140 728c-17 12 -27 29 -27 52c0 12 3 23 10 33l6 9c7 11 15 21 26 30c6 5 12 11 18 18l19 21l7 8c12 14 28 21 47 21c15 0 28 -5 40 -15c14 -12 21 -28 21 -47c0 -16 -6 -29 -16 -40l-7 -9l-20 -22c-9 -10 -18 -19 -26 -26c-3 -3 -5 -5 -6 -7l-6 -9 c-12 -17 -29 -27 -53 -27c-12 0 -23 3 -33 10zM62 645c0 17 6 32 19 44c12 12 26 18 43 18h6l14 1c6 1 15 2 28 5l41 8l28 5l9 1c17 2 32 -2 46 -13c15 -12 23 -28 23 -49c0 -15 -5 -29 -16 -41c-1 -1 -1 -3 -1 -5l-3 -18c-2 -10 -3 -24 -3 -41l-4 -77l-3 -100 c0 -37 -1 -80 -2 -129l-4 -94c-1 -16 -3 -33 -6 -52l-1 -3l18 -3c11 -1 20 -3 29 -6l9 -2c16 -5 28 -14 36 -29c5 -10 8 -20 8 -30c0 -6 -1 -11 -3 -17c-5 -17 -14 -29 -29 -37c-10 -5 -20 -8 -30 -8c-5 0 -11 1 -17 3l-9 2l-11 2c-7 1 -15 3 -25 4c-13 -19 -30 -28 -51 -28 c-12 0 -23 3 -33 10c-11 7 -18 16 -23 27l-26 3l-15 2c-17 2 -30 10 -41 24c-9 11 -13 24 -13 37c0 18 7 33 20 45c11 10 24 15 39 16v220c0 41 0 79 1 116l1 71c0 13 0 27 1 43l1 15c-15 3 -27 10 -36 21c-10 11 -15 24 -15 39z"></glyph><glyph glyph-name="Icircumflex" unicode="Î" d="M127 700c-21 0 -37 8 -49 23c-11 13 -15 28 -13 45l1 13c1 15 5 28 10 40c4 10 10 23 19 39l19 32c3 4 5 8 6 12l14 24c9 13 22 21 37 26c8 2 16 3 24 3c6 0 12 -1 18 -2c13 -3 24 -9 32 -16c13 -12 25 -27 34 -44l11 -19c5 -7 11 -17 18 -28l8 -15c6 -9 9 -19 9 -30 c0 -5 -1 -10 -2 -16c-5 -17 -14 -29 -29 -37c-10 -6 -20 -9 -30 -9c-5 0 -11 1 -16 3c-17 4 -29 13 -38 28l-9 14l-3 6l-8 -16l-2 -8l-1 -13c-2 -17 -10 -30 -23 -41c-11 -10 -24 -14 -37 -14zM160 -12l-28 6l-10 1h-10c-17 0 -32 6 -44 19c-12 12 -18 26 -18 43s6 31 18 43 s27 18 44 18h10c8 0 16 0 25 -1l2 13c1 6 1 17 2 33v411c-12 4 -22 11 -30 21c-9 10 -14 23 -14 38s5 28 15 40c11 13 24 21 41 22h10l28 3c12 1 22 3 31 4l33 4c12 1 21 2 26 3c7 1 15 2 22 2h7c17 0 32 -6 45 -17c12 -12 18 -26 18 -43c0 -13 -3 -24 -10 -35 s-17 -18 -28 -23c-1 -7 -3 -14 -6 -20l-2 -7c-1 -1 -1 -2 -1 -3c-1 -7 -3 -27 -6 -61c-3 -35 -5 -72 -7 -110l-4 -79c-1 -15 -2 -41 -5 -77c-3 -35 -4 -62 -5 -81l-3 -58c0 -2 0 -3 -1 -4l13 -1h25c17 0 31 -6 43 -18s18 -26 18 -43s-6 -32 -18 -44s-26 -18 -43 -18h-25 l-27 1c-9 1 -20 1 -31 2c-7 -3 -14 -4 -21 -4c-11 0 -22 3 -33 10l-7 1z"></glyph><glyph glyph-name="Idieresis" unicode="Ï" d="M345 811c12 11 27 17 44 17s31 -6 43 -17l3 -3c12 -12 18 -27 18 -44s-6 -32 -18 -43c-12 -12 -26 -18 -43 -18s-32 6 -44 18l-3 3c-12 11 -18 26 -18 43s6 32 18 44zM128 49c0 17 6 31 18 43s27 18 44 18h9c-1 5 -1 10 -1 15l-2 76c-1 29 -2 50 -3 63l-8 52 c-4 23 -7 44 -9 63c-1 15 -2 29 -5 42c-4 18 -6 32 -6 43v22c-1 7 -1 16 -2 26v62h-22c-17 0 -31 6 -43 18c-13 12 -19 26 -19 43c0 22 9 39 28 51c-7 2 -14 5 -19 10l-14 10c-16 12 -24 28 -24 50c0 13 4 25 12 36c12 16 28 24 50 24c13 0 25 -4 36 -12l14 -10 c16 -12 24 -28 24 -50c0 -13 -4 -25 -12 -36c-3 -4 -7 -8 -11 -11h195c17 0 32 -6 44 -18c12 -13 18 -27 18 -44s-6 -31 -18 -43s-27 -18 -44 -18h-36v-8c0 -6 1 -22 4 -47c3 -27 6 -61 8 -102c1 -39 3 -75 5 -108c3 -33 4 -59 5 -78v-128c0 -4 0 -8 -1 -12 c11 -12 17 -26 17 -42c0 -17 -6 -31 -18 -43c-12 -13 -26 -19 -43 -19h-109c-17 0 -32 6 -44 19c-12 12 -18 26 -18 43z"></glyph><glyph glyph-name="Idotaccent" unicode="İ" d="M219 699c-9 -9 -18 -15 -28 -20l-7 -3c-8 -3 -16 -5 -24 -5c-7 0 -15 1 -23 5c-16 6 -27 17 -33 33c-4 8 -5 17 -5 25s1 15 5 23c1 23 14 40 37 52c15 8 29 12 41 12c7 0 12 -1 18 -3c6 -1 12 -3 18 -6c15 -9 24 -21 29 -37c2 -6 2 -12 2 -17c0 -11 -2 -20 -8 -30l-4 -7 c-4 -7 -10 -15 -18 -22zM50 20c0 17 6 31 18 44c11 12 25 18 42 18h26c4 0 7 0 9 1v37l-1 39c-1 19 -2 50 -3 92l-4 122c-1 41 -2 71 -2 92v64h-9c-17 0 -31 6 -43 18s-19 27 -19 44c0 16 6 31 18 43s26 18 43 18h17l25 3c9 1 15 3 20 5c11 3 21 6 32 8c2 0 5 1 8 2 c13 4 25 7 37 8h9c17 1 32 -3 45 -14c14 -13 21 -28 21 -48c0 -16 -6 -30 -17 -42c13 -13 18 -29 17 -47l-1 -15l-9 -65c-5 -28 -8 -64 -9 -107c-2 -45 -3 -78 -3 -101l1 -77c1 -23 1 -41 1 -54c14 2 27 -1 40 -9s21 -19 26 -32c2 -7 3 -13 3 -20c0 -9 -2 -18 -6 -27 c-8 -15 -20 -26 -36 -31l-12 -4l-20 -7c-11 -4 -22 -7 -34 -9l-31 -5c-14 -2 -32 -3 -55 -4c-21 0 -39 0 -56 -1h-25c-17 0 -32 6 -44 17c-13 12 -19 27 -19 44z"></glyph><glyph glyph-name="Igrave" unicode="Ì" d="M50 42c0 21 8 37 25 50c13 10 28 14 45 12l18 -3l-3 60l-4 104c-1 41 -2 82 -2 122v110c0 35 0 60 1 73l2 24c-17 0 -31 6 -43 18c-13 12 -19 27 -19 44s6 31 19 43c12 12 26 18 43 18h12l-1 2l-9 12c-4 6 -9 12 -15 17c-10 11 -19 21 -26 31l-9 10l-11 10 c-13 11 -20 27 -20 46c0 16 6 29 16 41c12 13 28 20 47 20c15 0 28 -6 40 -16l10 -9c9 -9 17 -17 24 -26c5 -8 11 -15 17 -20c11 -11 20 -21 27 -32l9 -12c7 -11 11 -22 11 -34c0 -7 -1 -13 -3 -20h20c17 0 32 -6 44 -18l3 -3c12 -12 18 -27 18 -44c0 -15 -5 -29 -15 -40 v-541c14 -3 26 -10 36 -21c9 -11 14 -24 14 -39c0 -17 -6 -32 -18 -44s-27 -18 -44 -18h-62c-9 0 -20 0 -31 1c-13 0 -28 1 -47 3l-46 6l-20 3c-17 2 -30 10 -40 24c-9 11 -13 23 -13 36z"></glyph><glyph glyph-name="Imacron" unicode="Ī" d="M50 753c0 17 6 31 18 44c12 12 27 18 44 18h74c8 0 18 1 29 2c16 2 27 3 34 3l8 1c17 1 31 -5 44 -16c13 -13 20 -28 20 -46c0 -15 -5 -29 -16 -41c-11 -13 -25 -19 -42 -20l-8 -1c-4 0 -12 -1 -24 -2c-17 -2 -32 -3 -45 -3h-74c-17 0 -32 6 -44 18s-18 26 -18 43zM58 33 c0 12 4 24 12 35c9 14 22 22 39 25l29 5l-4 47c-1 19 -2 47 -3 84s-2 64 -2 82v224c-14 1 -26 5 -37 14s-19 20 -22 33c-1 5 -2 10 -2 15c0 11 3 22 10 32c9 15 21 24 37 28l9 2c9 2 20 4 35 5c9 1 20 2 33 5l41 9l24 6l8 2c5 1 10 2 15 2c11 0 21 -3 31 -9 c15 -9 24 -21 29 -37c1 -6 2 -11 2 -17c0 -10 -3 -20 -9 -30c-9 -15 -21 -24 -37 -28l-8 -2l-17 -4c13 -7 23 -18 29 -32c3 -9 5 -17 5 -25c0 -6 -1 -12 -3 -18l-8 -21c-2 -8 -3 -24 -3 -49l-1 -116c0 -22 -1 -40 -1 -54c0 -15 1 -26 1 -33l2 -44c1 -15 3 -28 4 -40 c1 -3 1 -5 1 -8l18 4l11 2c5 1 10 2 14 2c11 0 22 -3 32 -10c18 -12 28 -29 28 -52c0 -11 -3 -22 -9 -32c-9 -15 -22 -24 -39 -28l-10 -2c-8 -2 -16 -4 -25 -5c-9 -2 -20 -3 -32 -4l-18 -2c-7 -15 -19 -24 -34 -29c-8 -3 -15 -4 -22 -4c-15 0 -29 6 -41 18c-2 0 -4 0 -5 -1 l-35 -6c-4 -1 -7 -1 -11 -1c-12 0 -24 4 -35 11c-17 12 -26 29 -26 51z"></glyph><glyph glyph-name="Iogonek" unicode="Į" d="M296 204v-96c0 -13 -4 -26 -12 -37c1 -3 3 -7 4 -11c1 -5 2 -10 2 -15c0 -22 -11 -43 -29 -54c-2 -1 -14 -9 -29 -22c-5 -5 -11 -14 -17 -25c-3 -7 -5 -13 -5 -18c1 -10 1 -19 2 -27c5 -3 12 -6 19 -9c5 -3 9 -5 13 -6c4 1 7 1 11 1c12 0 24 -4 35 -13 c13 -10 21 -23 24 -40c2 -16 -2 -31 -12 -45c-11 -14 -24 -22 -40 -24l-10 -2c-4 -1 -7 -1 -11 -1c-10 0 -15 1 -19 1c-3 0 -6 1 -11 3l-11 4l-10 5c-5 3 -8 4 -10 5c-23 11 -41 20 -52 29c-20 16 -32 38 -37 66c-2 15 -3 31 -4 50c0 14 1 27 5 41c-22 10 -38 32 -38 57 c0 30 24 57 55 61h5c-3 8 -5 16 -5 25v6c0 4 0 15 -1 32c0 17 -1 41 -3 72c-5 64 -6 89 -7 166c-1 39 -2 77 -2 112v105c-7 2 -13 5 -18 8c-18 12 -28 32 -28 52c0 12 3 23 10 33l4 7c13 20 33 32 58 35c11 9 23 13 36 13c7 0 13 -1 20 -4c7 1 14 1 20 1c2 1 5 1 9 2l8 1 c11 9 24 14 38 14c33 0 62 -29 62 -62v-9c0 -7 0 -18 -1 -34c-1 -15 -2 -38 -3 -68l-3 -95c-1 -68 -5 -150 -9 -221c-2 -33 -3 -56 -3 -69z"></glyph><glyph glyph-name="J" unicode="J" d="M87 590c7 -3 14 -5 22 -5c12 0 24 4 34 6c0 -232 22 -188 22 -376c-2 -130 -1 -132 -73 -210c-19 -19 -26 -46 -26 -66c0 -31 27 -61 61 -61c29 0 55 20 61 49c12 13 19 22 31 36c83 0 153 97 153 215c0 144 -11 151 -11 416h20c33 0 62 28 62 62s-29 61 -62 61 c-110 0 -116 0 -126 -1c-11 -1 -29 -1 -54 -1c-77 0 -151 -3 -151 -70c0 -23 14 -45 37 -55z"></glyph><glyph glyph-name="Jcircumflex" unicode="Ĵ" d="M114 665c-17 0 -32 6 -44 18s-18 27 -18 44v7c0 13 3 28 10 46c5 15 13 31 23 49l22 42c5 9 9 16 11 21c4 10 8 20 13 29l10 17c11 19 27 32 48 39c10 3 21 5 31 5c4 0 9 0 13 -1l17 -3c5 -2 9 -4 13 -6c3 -2 7 -4 10 -7l8 -8c2 -3 4 -6 7 -9c2 -3 3 -6 4 -8l4 -7 c1 -3 2 -5 2 -6c8 -16 14 -31 18 -45l10 -36c3 -11 5 -20 7 -29l3 -13c1 -5 2 -10 2 -15c0 -11 -3 -22 -9 -32c-11 -19 -29 -30 -53 -30c-11 0 -21 3 -31 9c-15 9 -24 21 -28 37l-3 14l-4 15c-5 -10 -11 -21 -18 -32c-7 -13 -11 -23 -14 -32l-3 -7v-4c0 -17 -6 -32 -18 -44 s-26 -18 -43 -18zM111 604c0 13 4 26 14 37c11 13 24 21 40 23l29 3h1c3 1 7 1 10 1l53 7c23 3 44 5 62 8c19 2 32 3 39 3l7 1c17 0 31 -6 44 -17c13 -12 20 -27 20 -44c0 -16 -6 -31 -17 -43c-12 -13 -26 -19 -43 -19l-7 -1l-25 -2c-1 -9 -1 -19 -1 -30s1 -25 3 -40 c1 -15 4 -31 7 -46c4 -20 7 -40 10 -59l5 -45c2 -15 3 -48 4 -99v-32c0 -36 -1 -61 -5 -78c-5 -21 -12 -42 -21 -64c-9 -21 -17 -38 -24 -50l-22 -31c-9 -13 -17 -23 -26 -31c-7 -7 -15 -14 -22 -19c-13 -10 -27 -17 -41 -20l-7 -1c-3 -1 -7 -2 -11 -2 c-11 -9 -22 -15 -34 -20c-10 -4 -20 -6 -31 -6c-7 0 -14 1 -21 3l-6 2c-16 5 -28 14 -37 29c-6 10 -8 20 -8 30c0 6 0 11 2 17c4 13 12 24 23 33c11 8 24 12 38 12l9 6c9 8 19 20 28 37c10 19 19 46 26 82c6 26 8 63 8 108c0 20 0 40 -1 63c-3 78 -9 144 -20 199l-7 35 c-12 3 -22 10 -30 19c-10 11 -15 25 -15 41z"></glyph><glyph glyph-name="K" unicode="K" d="M452 148c15 -23 30 -48 30 -69c0 -33 -26 -61 -60 -61c-23 0 -45 13 -56 33c-35 61 -61 122 -98 231c-7 21 -13 43 -20 64c2 -47 8 -168 8 -258c0 -35 -25 -61 -70 -61c-33 1 -57 15 -66 43c-3 10 -7 23 -9 28c-32 61 -61 279 -61 391c0 63 4 120 17 173 c13 54 12 47 18 82c5 30 32 52 63 52c25 0 44 -13 54 -36c29 -7 51 -34 48 -65l-2 -20c-1 -11 -1 -32 -1 -64c41 46 46 54 87 86c12 9 26 13 39 13c35 0 61 -25 61 -61c0 -18 -8 -36 -23 -48c-19 -16 -39 -32 -49 -45c-6 -8 -15 -18 -30 -34c6 -10 9 -21 9 -33 c0 -9 0 -14 2 -25c12 -58 83 -274 109 -316z"></glyph><glyph glyph-name="Kcommaaccent" unicode="Ķ" d="M452 148c15 -23 30 -48 30 -69c0 -33 -26 -61 -60 -61c-23 0 -45 13 -56 33c-35 61 -61 122 -98 231c-7 21 -13 43 -20 64c2 -47 8 -168 8 -258c0 -35 -25 -61 -70 -61c-33 1 -57 15 -66 43c-3 10 -7 23 -9 28c-32 61 -61 279 -61 391c0 63 4 120 17 173 c13 54 12 47 18 82c5 30 32 52 63 52c25 0 44 -13 54 -36c29 -7 51 -34 48 -65l-2 -20c-1 -11 -1 -32 -1 -64c41 46 46 54 87 86c12 9 26 13 39 13c35 0 61 -25 61 -61c0 -18 -8 -36 -23 -48c-19 -16 -39 -32 -49 -45c-6 -8 -15 -18 -30 -34c6 -10 9 -21 9 -33 c0 -9 0 -14 2 -25c12 -58 83 -274 109 -316zM280 -58c37 0 57 -21 57 -53c0 -10 -2 -22 -6 -34c-2 -6 -3 -7 -11 -32l-4 -18c-5 -16 -14 -28 -29 -37c-9 -6 -20 -8 -30 -8c-21 0 -42 11 -53 30c-6 10 -8 20 -8 31c0 5 0 10 1 15l3 23c1 10 16 39 17 39c19 34 39 44 63 44z "></glyph><glyph glyph-name="L" unicode="L" d="M167 758h-4c-10 10 -22 16 -36 18c-33 3 -64 -22 -68 -54c-5 -39 -9 -109 -9 -151v-479c0 -33 29 -62 62 -62c5 0 10 1 15 2c26 -48 88 -65 200 -65c33 0 62 28 62 62s-29 61 -62 61c-40 0 -89 -1 -95 10c0 107 1 146 1 203c0 117 -5 178 -5 266v127c0 33 -28 62 -61 62z "></glyph><glyph glyph-name="Lacute" unicode="Ĺ" d="M422 110c3 -7 5 -14 5 -20c0 -9 -2 -17 -6 -26c-4 -7 -8 -14 -12 -18c-4 -5 -9 -10 -14 -15l-12 -10l-5 -3l-52 -18c-18 -7 -43 -5 -75 -6c-33 -1 -64 -1 -93 10c-11 4 -20 8 -26 11c-7 3 -15 9 -24 17s-16 17 -21 27c-7 12 -12 25 -17 38c-4 14 -7 33 -8 55l-2 62 c-1 21 -3 53 -6 94c-3 44 -4 80 -4 107c1 26 2 45 3 56c0 13 1 30 5 50c1 16 2 31 1 45c-1 12 -2 47 -2 57c0 37 15 63 36 74c-4 2 -7 5 -10 7c-16 12 -25 28 -25 51c0 12 4 24 12 35l14 19c11 16 25 32 42 47l21 18c12 10 26 16 41 16c19 0 34 -7 46 -20 c10 -12 16 -25 16 -40c0 -19 -7 -35 -21 -47l-20 -19c-11 -9 -19 -19 -26 -28l-14 -19l-3 -4c-4 -5 -10 -10 -17 -13c7 -3 14 -7 21 -11c10 -6 20 -15 29 -23c15 -13 26 -31 35 -54l13 -35l11 -38c4 -16 7 -30 9 -41s4 -25 5 -42c3 -19 4 -34 3 -48v-33c0 -11 -1 -23 -2 -35 l-1 -31c-1 -8 -2 -17 -2 -29c1 -13 0 -27 0 -43c0 -15 -1 -30 -2 -44c-1 -9 -1 -15 -1 -19l-2 -30c26 2 50 4 72 4c39 0 70 -7 85 -38z"></glyph><glyph glyph-name="Lcaron" unicode="Ľ" d="M206 772c17 0 32 -6 44 -18s18 -27 18 -44l1 -420c0 -48 1 -87 3 -116c1 -26 2 -46 2 -60c6 2 13 3 19 3c9 0 18 -2 27 -7c15 -8 25 -20 31 -35c2 -6 3 -13 3 -19c0 -10 -2 -19 -7 -28c-8 -15 -20 -26 -36 -31l-6 -2c-6 -2 -13 -4 -19 -5l-19 -3l-15 -4 c-6 -1 -10 -3 -12 -4c-14 -7 -30 -11 -48 -12c-13 -1 -25 -2 -37 -2c-16 0 -29 2 -39 5c-12 3 -22 9 -31 18s-15 19 -18 30c-3 7 -5 21 -7 40c-3 17 -5 41 -6 71c-2 29 -2 56 -2 79l-2 423c0 32 2 56 6 71l4 14c4 17 14 29 29 38c9 5 20 8 30 8c5 0 11 -1 16 -2 c8 -3 16 -7 23 -12c12 16 28 24 48 24zM489 651c0 4 0 8 1 9l3 21l1 6c5 36 -24 70 -61 70c-30 0 -56 -25 -61 -55l-1 -6c0 -2 0 -5 -1 -10c-1 -19 -11 -34 -11 -44l-10 -42c-2 -7 -4 -14 -4 -21c0 -30 24 -61 61 -61c26 0 49 16 58 40l3 6z"></glyph><glyph glyph-name="Lcommaaccent" unicode="Ļ" d="M305 88c36 0 73 -32 73 -70c0 -30 -24 -53 -54 -53h-12c-7 0 -17 0 -27 -1h-17c1 -5 2 -10 2 -16c0 -10 -2 -22 -6 -34c-2 -6 -3 -7 -11 -32l-4 -18c-5 -16 -14 -28 -29 -37c-10 -6 -20 -8 -30 -8c-21 0 -42 11 -53 30c-6 10 -8 20 -8 31c0 5 0 10 1 15l3 23 c1 10 16 39 17 39l5 8h-4h-11c-8 -1 -37 2 -54 11c-19 9 -37 34 -35 69c0 5 -1 10 0 13c0 7 0 17 1 31c1 11 2 21 2 32c0 13 0 25 2 34l3 36c2 34 7 141 7 208c0 36 0 63 2 82c1 14 1 43 -3 86c-1 19 -3 36 -4 49c-1 -1 -6 28 -6 62c0 29 4 62 19 82c9 13 23 18 40 18h20 c34 3 87 -25 106 -62c5 -11 9 -23 11 -34l6 -38c3 -21 6 -50 7 -75c0 -10 1 -18 2 -24c3 -19 6 -40 4 -72c-1 -13 -1 -26 -1 -39c0 -33 -6 -80 -7 -101c-1 -14 -4 -31 -4 -59c0 -12 1 -27 2 -44c1 -27 2 -46 4 -55l13 -87h28z"></glyph><glyph glyph-name="Ldot" unicode="Ŀ" d="M343 110c-6 2 -13 3 -19 3c-9 0 -18 -2 -27 -7l-7 -4c-3 -1 -9 -3 -17 -4c-3 -1 -4 -1 -4 2c-7 60 -8 152 -16 277c-5 80 -9 148 -10 187v79c0 32 -24 58 -55 62c-9 21 -32 38 -57 38c-33 0 -61 -29 -61 -62v-26c0 -8 0 -17 1 -27c1 -7 1 -17 1 -28l3 -47 c2 -17 3 -31 3 -42v-260c0 -31 0 -53 -1 -65c-1 -24 -6 -74 -9 -95c-2 0 -18 -25 -18 -53c0 -33 23 -70 119 -70c15 0 35 0 60 1c57 3 97 13 118 24l8 4c15 8 24 20 29 36c2 6 3 12 3 18c0 27 -17 51 -44 59zM517 335c2 13 3 24 3 30c0 29 -17 49 -49 60c-13 5 -25 7 -36 8 h-7c-28 1 -54 -23 -55 -52v-2c-12 -6 -22 -15 -28 -26c-4 -7 -5 -15 -5 -23c0 -19 10 -39 29 -48l7 -4c12 -6 28 -9 44 -9c12 0 24 1 36 3c28 5 57 31 61 63z"></glyph><glyph glyph-name="Lslash" unicode="Ł" d="M292 772c17 0 32 -6 44 -18s18 -27 18 -44v-210l21 9c8 4 16 5 24 5s15 -1 23 -4c16 -6 27 -17 34 -32c4 -8 5 -16 5 -24s-1 -15 -4 -23c-6 -16 -17 -27 -32 -34l-7 -3l-18 -8c-7 -3 -19 -10 -38 -20l-8 -4l1 -72c0 -48 1 -87 3 -116c1 -26 2 -46 2 -60c6 2 13 3 19 3 c9 0 19 -2 28 -7c15 -8 25 -20 30 -35c2 -7 3 -13 3 -19c0 -10 -2 -19 -7 -28c-8 -15 -20 -26 -36 -31l-6 -2c-6 -2 -12 -4 -19 -5l-19 -3l-15 -4c-5 -1 -9 -3 -12 -4c-13 -7 -29 -11 -48 -12c-13 -1 -25 -2 -37 -2c-16 0 -29 2 -39 5c-11 3 -21 9 -30 18s-16 19 -19 30 c-3 7 -5 21 -7 40c-3 17 -5 41 -6 71c-1 29 -2 56 -2 79v29c-11 -8 -23 -12 -36 -12h-7c-15 0 -27 6 -34 18c-7 11 -11 24 -11 39c0 14 2 27 5 40s7 20 12 22l24 14c11 5 26 14 45 25v248c0 32 2 56 6 71l4 14c5 17 14 29 29 38c10 5 20 8 31 8c5 0 10 -1 15 -2 c9 -3 16 -7 23 -12c13 16 29 24 48 24z"></glyph><glyph glyph-name="M" unicode="M" d="M435 273c-30 -100 -41 -146 -94 -146c-30 0 -64 21 -77 54c-32 83 -52 133 -62 168l-13 -2c8 -70 25 -132 42 -210l11 -49c9 -12 14 -26 14 -40c0 -45 -54 -71 -92 -71c-54 0 -83 86 -83 129c-18 53 -31 286 -31 377v197c0 34 28 61 62 61s61 -28 61 -61v-8c5 1 9 1 14 1 c56 0 89 -73 158 -307c23 72 34 109 39 144c34 162 22 114 36 169c5 27 20 41 38 41c31 0 62 -20 82 -38c18 -43 20 -169 20 -333v-135v-77c0 -7 12 -107 12 -132c1 -34 -26 -63 -61 -63c-33 0 -61 27 -62 59l-1 29c0 -6 -1 152 -1 247z"></glyph><glyph glyph-name="N" unicode="N" d="M380 338c-13 24 -26 81 -39 123c-45 146 -60 212 -110 212c-4 0 -8 0 -12 -1c0 48 -40 80 -79 80c-34 0 -61 -31 -61 -65c0 -9 3 -34 3 -30c0 -74 -32 -129 -32 -450c0 -65 1 -89 30 -138v-18c0 -33 29 -50 48 -50c9 0 17 2 25 6c11 -9 24 -13 38 -13c35 0 61 26 61 70 c0 57 -17 231 -17 279l13 7l50 -126c5 -21 25 -55 32 -79c15 -49 25 -72 37 -96v-1c1 -20 11 -46 25 -59c9 -8 17 -12 27 -12c54 0 86 48 91 110c3 40 6 150 6 225c0 156 6 266 20 374c0 33 -25 64 -60 64c-27 0 -51 -18 -60 -44c-7 -22 -9 -34 -8 -49 c-7 -44 -12 -151 -15 -317z"></glyph><glyph glyph-name="Nacute" unicode="Ń" d="M283 707c-19 11 -30 29 -30 53c0 11 3 21 9 31l5 9c7 10 19 24 37 43l34 34l23 24l12 12c12 12 27 19 45 19c16 0 30 -6 42 -17c12 -12 19 -26 19 -44c0 -17 -6 -31 -17 -43l-12 -12l-25 -26l-34 -34c-10 -10 -16 -17 -19 -21l-5 -8c-11 -19 -29 -29 -53 -29 c-11 0 -21 3 -31 9zM240 281c-1 -5 -1 -12 -1 -20c0 -24 3 -61 7 -103c1 -14 11 -80 12 -86l10 -47v-8c0 -15 -5 -29 -15 -40s-22 -18 -36 -21c-3 -11 -9 -20 -16 -28c-8 -8 -18 -13 -29 -16c-5 -1 -10 -2 -15 -2c-11 0 -21 3 -31 9c-15 9 -24 22 -28 38l-3 12l-9 33l-12 45 c-5 16 -9 35 -14 57c-6 32 -10 70 -10 115c0 23 0 49 1 78l3 114c1 35 4 70 8 104c3 33 7 63 12 90c5 31 11 56 20 73c5 11 10 20 17 27c14 16 31 25 51 28l12 2c15 2 30 -2 43 -11s22 -22 25 -37h7c14 0 22 -3 23 -11c0 -7 0 -12 1 -15c1 -6 1 -12 1 -17 c20 -120 44 -215 76 -299l13 -7c0 23 4 103 5 124l3 90c1 22 4 42 10 61l3 12l4 10c1 4 3 8 6 12c2 3 5 7 9 11c3 3 7 6 12 9s10 5 17 7s14 3 21 3h7c17 0 31 -6 44 -18c12 -13 18 -27 18 -44c0 -21 -9 -37 -27 -50c-1 -6 -1 -12 -1 -18l-3 -88c-1 -30 -1 -63 -1 -99v-47 l1 -139v-77c0 -16 0 -30 -1 -41l-1 -18c1 -19 -3 -32 -12 -40c-7 -5 -14 -8 -22 -8c-3 0 -7 0 -10 1c-13 3 -26 7 -39 12s-24 11 -33 17l-14 9c-9 20 -25 42 -34 66c-6 18 -59 148 -72 188z"></glyph><glyph glyph-name="Ncaron" unicode="Ň" d="M517 669c16 -12 26 -28 26 -51c0 -13 -4 -25 -12 -36l-1 -1c-1 -3 -1 -7 -1 -10c-2 -15 -3 -32 -4 -52v-70l-3 -77c-1 -32 -5 -74 -7 -115c-2 -42 -5 -73 -8 -94c-3 -19 -5 -33 -7 -42l-3 -28c-1 -15 -4 -28 -10 -38c-11 -20 -34 -31 -63 -31c-13 0 -24 4 -32 10 c-7 5 -14 10 -19 17c-5 6 -9 10 -10 13l-8 19l-6 15c1 0 -88 254 -88 254l-10 -2c-3 -20 -6 -42 -7 -65c-3 -45 -4 -76 -5 -91l-5 -113c0 -11 0 -21 -1 -31l-1 -13c0 -15 -4 -29 -12 -40s-18 -20 -28 -25c-10 -4 -20 -7 -30 -7c-8 0 -17 2 -26 5c-19 7 -32 18 -40 33 c-3 7 -6 14 -8 21c-7 3 -13 7 -19 14c-13 12 -19 26 -19 43v68c0 17 1 38 3 65c2 25 6 58 11 98c5 39 10 74 15 103c5 30 11 58 18 85c6 26 12 48 17 67s10 35 14 46l8 24c7 19 20 34 38 44l7 4c11 6 23 8 36 7c13 9 27 12 42 10c-7 5 -13 12 -18 19c-7 9 -12 19 -17 32 c-2 7 -6 17 -12 32c-5 14 -11 26 -16 36c-10 20 -15 38 -15 54v8c-1 1 -1 1 -1 2c0 3 1 9 3 16c1 8 4 15 9 21c4 6 11 11 22 15c10 4 22 5 37 4l15 -3l11 -4c3 -1 6 -3 9 -4l6 -5c1 -2 3 -4 4 -5l3 -5c1 -2 1 -3 2 -4l1 -5c5 -8 11 -19 17 -34l3 14c3 13 6 23 9 30l3 7 c6 15 17 26 33 33c8 3 16 5 24 5s16 -1 23 -4c15 -7 26 -18 33 -33c4 -9 5 -17 5 -25s-1 -15 -4 -23l-3 -6l-2 -9c-2 -10 -4 -19 -7 -28l-8 -29c-5 -16 -14 -34 -26 -53c-16 -26 -35 -44 -56 -53c-17 -7 -31 -11 -44 -11c-4 0 -8 0 -11 1c5 -4 9 -8 12 -13c5 -3 9 -6 11 -8 c5 -4 10 -8 14 -13l10 -13c2 -4 4 -9 6 -15s3 -10 4 -12l2 -14c1 -7 2 -12 3 -14c5 -26 10 -54 14 -83c3 -26 22 -91 28 -123h8l-1 142c0 23 2 44 5 63l1 8c0 4 0 7 1 9l1 8c1 3 1 6 2 9l3 8c1 3 3 7 5 10c1 3 3 6 6 9l5 8c12 16 30 26 52 26c13 0 24 -4 34 -11z"></glyph><glyph glyph-name="Ncommaaccent" unicode="Ņ" d="M380 338c-13 24 -26 81 -39 123c-45 146 -60 212 -110 212c-4 0 -8 0 -12 -1c0 48 -40 80 -79 80c-34 0 -61 -31 -61 -65c0 -9 3 -34 3 -30c0 -74 -32 -129 -32 -450c0 -65 1 -89 30 -138v-18c0 -33 29 -50 48 -50c9 0 17 2 25 6c11 -9 24 -13 38 -13c35 0 61 26 61 70 c0 57 -17 231 -17 279l13 7l50 -126c5 -21 25 -55 32 -79c15 -49 25 -72 37 -96v-1c1 -20 11 -46 25 -59c9 -8 17 -12 27 -12c54 0 86 48 91 110c3 40 6 150 6 225c0 156 6 266 20 374c0 33 -25 64 -60 64c-27 0 -51 -18 -60 -44c-7 -22 -9 -34 -8 -49 c-7 -44 -12 -151 -15 -317zM202 -191c24 -11 42 -8 40 -7c16 2 30 10 40 24l5 7h1l36 36c16 17 28 31 37 41l12 14c9 13 14 26 14 42c0 19 -8 34 -22 45c-11 9 -24 14 -38 14c-20 0 -37 -7 -48 -22l-12 -14c-8 -8 -19 -20 -33 -36c-12 -12 -19 -20 -23 -24 c-10 -7 -17 -15 -23 -24l-5 -7c-8 -10 -12 -22 -12 -34c0 -4 0 -7 1 -11c3 -19 18 -40 30 -44z"></glyph><glyph glyph-name="Eng" unicode="Ŋ" d="M558 606c0 -13 -4 -25 -12 -36l-1 -1c-1 -3 -1 -7 -1 -10c-2 -15 -3 -32 -4 -52v-70c0 -25 0 -54 -1 -85c0 -32 -1 -68 -3 -109v-7c1 -39 2 -90 2 -132v-60c0 -18 -2 -36 -5 -54c-4 -35 -17 -65 -22 -80c-13 -43 -32 -68 -51 -89c-17 -18 -55 -33 -81 -33 c-9 0 -17 2 -21 7c-10 1 -21 2 -32 5l-14 5c-27 7 -45 33 -45 60c0 35 30 60 62 60c5 0 11 -1 16 -2l15 -4c1 -1 3 -1 4 -1s1 0 2 1c3 2 20 39 22 52c2 10 2 21 2 33c0 18 -2 37 -8 50c-1 4 -3 9 -6 15l-6 15c-8 19 -80 140 -110 198l-16 -4v-5c-3 -45 -5 -76 -5 -91v-112 c0 -11 0 -21 -1 -31c-1 -7 -1 -11 -1 -13c0 -15 -4 -29 -12 -40c-9 -11 -18 -20 -28 -25c-10 -4 -20 -7 -30 -7c-9 0 -17 2 -26 5c-19 7 -33 18 -40 33c-4 10 -8 21 -11 30c-5 3 -10 6 -14 11c-13 12 -21 25 -21 42l-4 68c0 9 -1 18 -1 29s1 23 1 36c0 25 3 59 5 99 c3 39 7 74 10 103c3 31 8 59 14 86c4 26 9 49 13 68s8 35 12 47l6 24c6 19 18 36 36 46l7 4c11 6 23 8 36 7c5 4 15 5 26 5c15 0 34 -3 48 -9c5 -4 9 -8 12 -13c5 -3 9 -6 11 -8c5 -4 10 -8 14 -13s7 -10 10 -13c2 -4 4 -9 6 -15s3 -10 4 -12c0 -3 1 -7 2 -14s2 -12 3 -14 c19 -45 33 -122 83 -259l12 4l-4 179c1 23 2 44 5 63c0 1 0 4 1 8c0 4 0 7 1 9c0 1 0 4 1 8c1 3 1 6 2 9l3 8c1 3 3 7 5 10c1 3 3 6 6 9l5 8c12 16 30 26 52 26c13 0 24 -4 34 -11c16 -12 26 -28 26 -51z"></glyph><glyph glyph-name="Ntilde" unicode="Ñ" d="M476 750c35 0 60 -31 60 -64c-14 -108 -20 -218 -20 -374c0 -75 -3 -185 -6 -225c-5 -62 -37 -110 -91 -110c-10 0 -18 4 -27 12c-14 13 -24 39 -25 59v1c-12 24 -22 47 -37 96c-7 24 -27 58 -32 79l-50 126l-13 -7c0 -48 17 -222 17 -279c0 -44 -26 -70 -61 -70 c-14 0 -27 4 -38 13c-8 -4 -16 -6 -25 -6c-19 0 -48 17 -48 50v18c-29 49 -30 73 -30 138c0 321 32 376 32 450c0 -4 -3 21 -3 30c0 24 13 46 33 58c-2 3 -4 8 -5 12l-2 8c-3 10 -4 23 -4 38v29c0 29 11 53 33 72c20 17 42 26 66 27c19 0 40 -5 64 -16c17 -7 28 -13 35 -17 l10 -5l-2 5c-5 9 -7 18 -7 28c0 6 1 13 3 20c5 16 15 28 30 36c9 4 17 6 27 6c6 0 13 -1 20 -3c16 -5 28 -15 36 -30l4 -8c7 -14 11 -31 11 -51v-34c0 -14 -1 -28 -3 -41c-5 -35 -20 -56 -45 -64c-12 -4 -24 -5 -36 -5c-18 0 -37 4 -55 13h-1c-9 4 -18 8 -27 13 c-7 4 -14 7 -20 10l-20 10v-2l2 -5c2 -6 3 -12 3 -17c0 -10 -3 -20 -8 -29c-6 -9 -12 -17 -20 -22c11 -13 18 -31 18 -51c4 1 8 1 12 1c50 0 65 -66 110 -212c13 -42 26 -99 39 -123l13 2c3 166 8 273 15 317c-1 15 1 27 8 49c9 26 33 44 60 44z"></glyph><glyph glyph-name="O" unicode="O" d="M186 710c-12 11 -26 17 -43 17s-31 -6 -42 -17c-46 -45 -51 -104 -51 -330v-103c0 -172 2 -185 32 -225c21 -31 54 -66 75 -82c14 -14 45 -16 60 -16c109 0 178 99 192 222c8 76 10 112 10 156c0 58 2 114 2 166c0 147 -17 254 -149 258c-40 0 -63 -19 -86 -46zM259 103 c0 1 -36 17 -50 47c-11 24 -12 60 -12 134v37c0 138 8 273 82 302c20 -67 20 -219 20 -309c-1 -44 -12 -163 -40 -211z"></glyph><glyph glyph-name="Oacute" unicode="Ó" d="M63 571c1 9 2 17 5 24c3 9 6 16 10 23l16 35c13 25 34 39 64 42c9 1 20 2 31 1c1 5 3 9 5 14c-6 -2 -12 -3 -18 -3c-15 0 -28 6 -40 17c-13 12 -20 27 -20 45c0 16 5 30 16 42l10 10c6 7 17 19 32 34c15 17 25 28 31 33l7 7c12 12 27 18 43 18c18 0 33 -7 45 -19 c11 -12 17 -27 17 -43c0 -18 -7 -33 -19 -45l-8 -7c-5 -4 -14 -13 -27 -28l-27 -29c5 1 9 1 13 1c11 0 21 -2 31 -8c13 -8 22 -20 27 -35l2 -6l9 -13l29 -45c11 -19 23 -44 34 -75s20 -63 26 -95c6 -33 10 -66 11 -99c1 -31 1 -63 1 -94c0 -36 -4 -69 -13 -99 c-9 -29 -18 -51 -27 -64c-7 -12 -16 -24 -26 -35c-8 -9 -19 -21 -34 -36c-15 -16 -27 -27 -35 -33c-7 -6 -17 -12 -28 -19c-18 -12 -37 -19 -56 -20c-6 -1 -12 -1 -18 -1c-8 0 -16 1 -24 2c-15 3 -28 9 -39 20c-12 11 -20 23 -24 36c-5 14 -7 27 -7 38v7c0 7 1 14 3 21 c-5 8 -10 22 -16 41c-5 19 -11 51 -17 95c-5 39 -8 79 -8 119c0 48 2 94 5 138zM200 571c-4 -7 -9 -14 -15 -19c-2 -15 -4 -41 -7 -78c-3 -42 -5 -86 -5 -132c0 -34 2 -67 7 -100c5 -37 9 -63 13 -76l2 -6l7 6c10 9 21 24 33 47c13 23 21 51 25 83c5 36 7 73 7 111 c-1 31 -8 59 -21 86c-17 33 -30 56 -39 69z"></glyph><glyph glyph-name="Ocircumflex" unicode="Ô" d="M129 681c-13 0 -24 4 -35 12c-14 10 -22 23 -25 39l-2 12c-1 7 -2 15 -2 24c0 7 0 15 2 23c2 17 7 34 16 53l17 35l12 24c9 19 24 33 44 42c9 4 18 7 27 7c10 0 19 -2 26 -5s13 -6 20 -11c6 -5 11 -10 14 -13s6 -7 8 -10c9 -12 15 -21 19 -28c3 -5 10 -17 22 -36l18 -29 c6 -10 9 -20 9 -31c0 -25 -11 -43 -29 -54c-10 -6 -21 -9 -32 -9c-24 0 -42 11 -53 29l-15 25l-1 -5c-1 -5 -1 -8 -1 -10l2 -12c1 -4 1 -8 1 -12c0 -11 -3 -22 -11 -33c-12 -17 -29 -27 -51 -27zM82 505c-7 11 -10 23 -10 35l1 8c0 9 1 18 4 25c2 7 4 13 6 16l11 15l10 14 c5 9 10 15 13 19s8 10 16 18c7 7 16 13 26 17c9 3 20 5 32 4c15 0 29 -1 40 -4l12 -4c4 -2 7 -3 10 -4l9 -6l8 -5l8 -7l6 -6l8 -7c21 -7 34 -20 40 -40l4 -11c1 -5 3 -10 5 -15l16 -34c7 -15 14 -29 20 -40c8 -15 16 -35 25 -59c9 -25 16 -54 20 -89c4 -29 6 -63 6 -102 c0 -56 -4 -103 -14 -140c-9 -36 -24 -68 -44 -96c-19 -26 -38 -47 -58 -62c-26 -20 -55 -30 -86 -30c-27 1 -52 7 -74 19c-21 11 -39 24 -52 39c-12 14 -23 32 -32 53s-14 39 -16 55c-1 13 -2 28 -2 47v76c0 35 0 68 1 99l2 65c1 19 4 33 8 44l3 8c4 9 10 17 17 24v44 c1 6 1 12 1 17zM207 544l-1 -3c-18 -43 -26 -106 -26 -173c0 -109 21 -228 55 -285c42 36 62 111 62 191c0 103 -32 216 -90 270z"></glyph><glyph glyph-name="Odieresis" unicode="Ö" d="M462 767l2 -7c0 -1 0 -2 -1 -4c-1 -3 -2 -5 -2 -8c-2 -17 -9 -30 -22 -41s-28 -15 -45 -14l-8 1c-15 1 -30 9 -43 23c-14 13 -20 30 -19 50v7c0 8 1 15 3 20c5 15 16 27 31 35c9 4 17 6 26 6c7 0 14 -1 21 -4l8 -2l7 3c13 1 27 -20 42 -65zM78 797c12 11 27 17 44 17 s31 -6 43 -18l3 -3c12 -11 18 -26 18 -43s-6 -32 -18 -43c-12 -12 -26 -18 -43 -18s-32 6 -44 17l-3 4c-12 11 -18 26 -18 43s6 32 18 44zM119 626c7 11 13 20 20 29c23 27 46 45 69 52c13 4 27 6 42 6c8 0 17 0 26 -2c22 -4 41 -11 56 -22c14 -9 26 -21 37 -36 c8 -11 18 -29 31 -52c16 -31 24 -69 24 -115c0 -30 -1 -61 -2 -93c15 -12 22 -28 22 -47v-135c-1 -33 -5 -64 -12 -93c-9 -33 -23 -62 -43 -86c-19 -23 -38 -41 -58 -52c-18 -10 -33 -17 -46 -21c-7 -2 -15 -3 -23 -3c-19 0 -39 6 -60 19c-19 11 -38 27 -57 48 c-21 21 -38 45 -52 72c-15 29 -26 68 -32 116l-10 88c-1 5 -1 11 -1 18c0 25 4 62 11 111l9 56c1 25 3 44 5 56c3 20 7 35 10 44l3 8c6 15 16 27 31 34zM192 270c7 -100 38 -147 60 -161c28 16 43 48 61 124c8 34 13 75 13 119c0 93 -22 194 -79 238 c-48 -48 -59 -133 -59 -216c0 -36 2 -72 4 -104z"></glyph><glyph glyph-name="Ograve" unicode="Ò" d="M374 755c0 -23 -11 -41 -30 -52c-10 -7 -21 -10 -32 -10c-5 0 -10 1 -15 2l-12 3c-22 6 -40 19 -55 38c-7 10 -19 30 -36 61c-14 26 -23 42 -27 48l-9 13c-7 11 -11 22 -11 34c0 22 10 40 27 52c10 7 22 10 33 10c23 0 41 -10 53 -26l8 -13c7 -10 19 -30 35 -60l22 -40h2 c16 -4 29 -13 38 -28c6 -10 9 -21 9 -32zM225 -11c-12 3 -23 8 -33 15c-17 11 -31 23 -44 36c-11 12 -23 26 -34 41c-12 17 -23 38 -32 63c-9 24 -17 57 -24 100c-5 33 -8 66 -8 100c0 10 1 21 1 31c2 43 7 83 14 118c8 35 15 59 20 72s11 26 20 40l10 17c11 19 29 30 53 30 c11 0 22 -3 32 -9l8 -5c14 16 30 27 49 34c20 8 39 11 58 11c29 0 55 -8 77 -24c15 -11 26 -21 35 -32s18 -28 27 -51l29 -81c15 -41 24 -89 29 -144c2 -21 3 -40 3 -59c0 -32 -3 -61 -8 -88c-8 -42 -20 -79 -37 -112l-34 -66c-11 -23 -26 -42 -43 -59 c-23 -22 -48 -33 -74 -33c-24 0 -45 8 -63 22c-10 7 -20 18 -31 33zM300 104c11 -2 22 -7 31 -14l29 58c11 22 20 48 26 79c4 19 5 40 5 64c0 15 0 32 -2 50c-3 45 -11 82 -22 113c-12 35 -21 61 -28 77l-8 19c-3 3 -6 6 -11 9c-1 1 -2 1 -3 1c-58 -42 -86 -146 -86 -246 c0 -90 23 -177 69 -210z"></glyph><glyph glyph-name="Ohungarumlaut" unicode="Ő" d="M179 724c-12 11 -19 26 -19 44c0 16 6 30 18 42l36 36c26 27 45 44 56 53l13 9c11 8 23 12 36 12c21 0 38 -9 50 -25c8 -11 12 -23 12 -36c0 -22 -9 -39 -26 -50l-13 -10c-6 -4 -20 -17 -41 -39l-35 -36c-12 -12 -26 -18 -43 -18s-32 6 -44 18zM332 718c-4 7 -5 15 -5 22 c0 8 2 16 5 25c7 15 18 26 33 33l69 28c8 3 15 5 23 5s16 -2 24 -5c15 -7 26 -18 33 -33c3 -8 5 -16 5 -24s-2 -16 -5 -23c-7 -16 -18 -27 -33 -34l-69 -28c-8 -3 -16 -5 -24 -5s-16 2 -23 5c-16 7 -27 18 -33 34zM430 469c13 -4 23 -11 31 -22c7 -11 11 -23 11 -36v-87 l1 -57c0 -29 -2 -65 -5 -109c-3 -53 -16 -97 -37 -132c-23 -37 -46 -61 -71 -73c-22 -11 -46 -16 -71 -16c-26 1 -56 11 -91 30c-31 18 -56 38 -74 59c-16 19 -28 36 -36 53c-8 15 -16 36 -23 63c-8 28 -13 70 -14 125c-1 26 -1 52 -1 76s0 48 1 70c1 48 8 93 20 134 c14 49 36 86 66 111c1 0 3 2 7 5l8 7c1 1 4 2 8 5l8 6l9 4c3 2 6 3 9 4l10 3l12 3h13c17 -1 39 -7 65 -18c27 -11 50 -28 71 -50c20 -22 38 -53 55 -93c8 -19 14 -41 18 -65zM262 95c52 7 73 84 73 173c0 118 -36 257 -85 289c-41 -39 -61 -142 -61 -240 c0 -109 25 -214 73 -222z"></glyph><glyph glyph-name="Omacron" unicode="Ō" d="M88 747c0 17 6 31 18 43s26 18 43 18h9l37 2c19 1 40 4 64 8c23 3 42 7 55 10l23 6c6 2 11 2 17 2c10 0 20 -2 30 -8c15 -9 24 -21 29 -37c1 -5 2 -11 2 -16c0 -10 -3 -21 -9 -30c-9 -15 -21 -25 -37 -29l-24 -7c-17 -5 -40 -9 -67 -13c-28 -5 -53 -8 -76 -9 c-22 -1 -37 -2 -44 -2h-9c-17 0 -31 6 -43 19c-12 12 -18 26 -18 43zM447 220c12 -5 22 -13 30 -24c7 -12 10 -25 9 -38v-9c-1 -10 -3 -22 -7 -35c-4 -15 -11 -32 -22 -51c-11 -20 -24 -37 -39 -52c-14 -15 -30 -28 -48 -39l-11 -7c-15 -17 -30 -29 -45 -37 c-14 -7 -28 -11 -44 -11c-13 0 -26 4 -38 10c-15 7 -28 17 -40 31c-8 4 -15 8 -22 13c-18 13 -33 28 -46 45c-10 15 -18 27 -24 38c-5 8 -9 16 -13 25c-6 11 -12 26 -18 44c-7 19 -12 49 -15 88c-3 31 -4 64 -4 101c0 54 3 103 10 146c7 39 18 77 33 114c6 15 12 28 17 37 s14 20 25 31s23 19 38 24l10 4c5 1 9 2 10 3l11 2c5 1 9 2 12 1c2 -1 7 -1 15 -1l30 -6c16 -5 33 -13 52 -24c17 -11 31 -22 43 -34c13 -13 24 -30 34 -51l18 -37c5 -11 9 -25 13 -43l15 -68c8 -37 12 -86 12 -147c-1 -15 -1 -29 -1 -43zM249 537c-45 -5 -85 -113 -85 -226 c0 -94 27 -192 99 -240c49 23 70 116 70 213c0 116 -31 239 -84 253z"></glyph><glyph glyph-name="Oslash" unicode="Ø" d="M602 645c0 -13 -4 -24 -12 -35s-18 -18 -29 -22c-9 -13 -21 -29 -38 -50c-11 -13 -23 -28 -37 -46l4 -17c8 -31 13 -65 14 -100c1 -32 2 -55 2 -69v-62c0 -33 -3 -62 -10 -87c-7 -27 -15 -47 -24 -62c-9 -13 -18 -24 -29 -33s-21 -16 -30 -21l-24 -6 c-23 -19 -48 -29 -64 -32c-10 -2 -21 -3 -32 -3c-29 0 -58 9 -86 29c-18 14 -31 26 -39 37s-14 24 -19 39l-7 -4c-9 -6 -19 -8 -29 -8c-5 0 -11 0 -17 2c-17 5 -29 14 -37 29c-6 9 -9 19 -9 29c0 6 1 12 3 18c5 17 14 29 29 37l6 3c5 4 11 10 20 19c7 7 17 17 28 31 c0 36 0 69 1 100c1 39 2 68 2 87c1 20 2 46 5 78l6 69c0 1 0 3 1 7l1 8c0 1 0 4 1 9l2 9l4 9c1 4 3 8 5 11l8 9c3 3 6 7 10 10c16 13 34 20 55 20h9c5 0 11 -1 16 -3c13 5 26 7 38 6c1 1 3 2 5 3c10 7 20 10 31 10c24 0 42 -11 53 -29l10 -16l19 -29c3 -4 6 -9 9 -14l1 2 c18 22 30 37 35 45l3 5l4 7c1 1 2 4 5 7s5 6 8 8l9 6c3 3 7 5 11 7c3 1 8 3 13 4s11 1 17 1h7c17 0 31 -6 44 -18c12 -12 18 -27 18 -44zM262 411c19 23 70 69 90 93c-14 57 -38 94 -55 111c-28 -41 -36 -76 -36 -155c0 -15 1 -31 1 -49zM360 327c-29 -21 -76 -64 -99 -94 c-2 -12 -3 -26 -3 -39c0 -31 4 -60 6 -68c9 -20 11 -28 27 -28c3 0 8 0 13 1c34 22 42 62 47 87c5 33 8 88 9 116v25z"></glyph><glyph glyph-name="Otilde" unicode="Õ" d="M133 645c-6 -2 -12 -3 -18 -3c-10 0 -20 3 -29 9c-15 8 -25 20 -30 36l-2 8c-3 10 -4 23 -4 38v29c0 29 11 53 33 72c20 17 42 26 66 27c19 0 40 -5 64 -16c17 -7 28 -13 35 -17l10 -5l-2 5c-5 9 -7 19 -7 28c0 7 1 13 3 20c5 16 15 28 30 36c9 4 18 6 27 6 c6 0 13 -1 20 -3c16 -5 28 -15 36 -30l4 -8c7 -14 11 -31 11 -51v-34c0 -14 -1 -28 -3 -41c-5 -35 -20 -56 -45 -64l22 -15c12 -9 29 -26 50 -50c22 -24 39 -48 52 -71c13 -25 24 -62 33 -110c6 -34 9 -67 9 -100c0 -11 0 -22 -1 -33c-3 -41 -8 -81 -17 -119l-3 -19 c-2 -9 -3 -15 -4 -18l-4 -14c-2 -6 -4 -11 -6 -15l-9 -15l-21 -33c-13 -21 -28 -38 -43 -53c-15 -13 -26 -21 -34 -26c-5 -4 -10 -7 -15 -10c-11 -6 -23 -10 -36 -13l-8 -1h-3c-17 -19 -39 -28 -64 -28c-93 0 -121 113 -121 254c0 83 10 176 21 260c3 24 5 41 8 52l4 11 c1 6 4 12 8 17c-1 4 -1 7 -1 11c0 14 5 27 14 38l6 7c13 16 30 26 52 29c-3 8 -5 16 -5 24s2 17 6 25c5 9 11 17 19 23h-1l-27 13c-7 4 -14 7 -20 10l-20 10v-2l2 -5c2 -6 3 -11 3 -17c0 -10 -3 -20 -8 -29c-9 -15 -21 -25 -37 -30zM256 475c-12 -88 -21 -215 -21 -308 c0 -28 1 -52 3 -72c89 18 134 132 134 241c0 93 -33 182 -100 205z"></glyph><glyph glyph-name="OE" unicode="Œ" d="M673 644c0 -36 -25 -61 -62 -61c-8 0 -16 1 -24 3s-39 5 -62 6c-8 -28 -12 -116 -13 -252c14 4 27 6 38 6c39 0 63 -21 63 -60c0 -26 -20 -52 -46 -59c-22 -6 -56 -13 -56 -13l1 -173c28 9 14 4 46 18c8 3 16 4 24 4c35 0 63 -27 63 -60c0 -32 -20 -49 -48 -62 c-46 -18 -68 -26 -107 -26c-26 0 -47 6 -61 19c-29 -21 -124 -30 -154 -30c-17 0 -34 3 -51 8c-95 31 -171 161 -174 273c0 164 14 301 45 396c7 23 23 36 47 41c28 32 58 55 97 55c29 0 128 -3 151 -11l9 13c13 19 31 27 54 26c12 7 24 10 37 10h43c69 -2 140 -10 140 -71z M348 49c-12 34 -18 134 -18 238c0 106 6 216 18 263c-13 3 -56 5 -82 5c-10 0 -17 0 -20 -1c-47 -47 -55 -153 -55 -266c0 -99 6 -246 113 -246c13 0 28 2 44 7z"></glyph><glyph glyph-name="P" unicode="P" d="M451 487c0 -69 -1 -85 -12 -115c-38 -98 -89 -120 -202 -127v-200c0 -29 -22 -56 -50 -61c-15 -11 -26 -17 -43 -17c-61 0 -94 93 -94 167v236c0 90 12 169 30 285c4 21 9 37 14 47l4 7c10 20 33 32 55 32c9 0 19 -2 28 -7l6 -4c4 1 8 2 12 2c28 3 92 -5 133 -32 c77 -47 117 -131 119 -213zM234 376c87 0 94 62 94 108c0 42 -19 96 -103 96c0 -42 5 -172 9 -204z"></glyph><glyph glyph-name="Thorn" unicode="Þ" d="M195 698c17 -12 28 -29 28 -52c0 -13 -4 -24 -9 -34c168 -16 267 -121 267 -211c0 -82 -66 -212 -228 -235l3 -27c7 -52 12 -81 12 -102c0 -17 -3 -28 -11 -41c-7 -11 -17 -19 -29 -24c-3 -25 -22 -46 -46 -53c-5 -1 -10 -2 -15 -2c-27 0 -53 19 -59 48 c-54 184 -58 259 -58 471c0 148 6 278 95 268c7 2 13 3 19 3c11 0 21 -3 31 -9zM235 291c104 14 123 92 123 110c0 21 -36 71 -146 71c2 -31 15 -129 23 -181z"></glyph><glyph glyph-name="Q" unicode="Q" d="M223 -23c7 -5 14 -9 22 -12c57 -74 92 -122 139 -122c34 0 61 26 61 60c0 20 -10 41 -28 53c-22 14 -22 15 -43 42c67 31 99 239 99 339v169c0 32 -24 122 -39 158c-16 36 -30 67 -69 79c-11 3 -28 5 -45 5c-13 0 -27 -1 -37 -5c-12 14 -29 21 -46 21 c-64 0 -94 -105 -99 -116c-78 -168 -88 -255 -88 -434c0 -78 36 -154 105 -223c11 -11 28 -17 44 -17c18 0 12 3 24 3zM255 472c11 61 53 117 67 141c11 -25 27 -92 28 -108v-167c0 -101 -12 -202 -64 -254c-35 35 -42 105 -42 174c0 38 2 75 3 105c0 18 6 92 8 109z"></glyph><glyph glyph-name="R" unicode="R" d="M512 -1c0 -35 -26 -61 -61 -61c-45 0 -41 20 -101 100c-25 32 -85 139 -103 182l-12 -6c0 -29 3 -58 4 -72c2 -44 4 -75 4 -97c0 -42 -7 -49 -34 -49c-5 0 -9 1 -14 2c-7 -2 -14 -3 -20 -3c-72 0 -125 166 -125 263c0 94 1 160 5 226c0 40 19 213 31 240 c15 33 32 50 63 50c8 0 16 -2 24 -5s15 -8 20 -15c98 0 116 -10 157 -43c45 -37 70 -93 70 -156c0 -85 -10 -100 -84 -223c42 -99 76 -176 128 -240c26 -37 48 -69 48 -93zM290 490c8 15 7 31 7 39v26c0 7 -1 14 -2 21c-1 4 -1 7 -2 10c-5 9 -12 22 -21 30l-46 25 c-5 -52 -8 -96 -8 -146c0 -22 1 -45 2 -71c13 6 51 32 70 66z"></glyph><glyph glyph-name="Racute" unicode="Ŕ" d="M299 813c-8 -9 -17 -15 -28 -18c-6 -2 -12 -3 -18 -3c-10 0 -19 2 -28 7c-15 7 -26 19 -31 35l-3 10c-3 9 -4 18 -4 26c0 15 4 30 13 43l14 21c8 11 16 23 25 34c8 11 15 19 21 26c5 5 10 10 14 15c11 11 21 17 32 17c10 -1 20 -5 29 -14s16 -18 23 -28 c6 -11 11 -20 15 -29l6 -13c-3 -10 -7 -19 -11 -26c-3 -5 -6 -12 -11 -23c-4 -9 -7 -15 -8 -18v-2l-1 -6c-1 -13 -6 -25 -15 -35s-21 -16 -34 -19zM502 32c7 -10 10 -22 10 -33c0 -21 -10 -41 -28 -52c-10 -6 -22 -9 -33 -9c-20 0 -41 10 -53 28l-3 6l-15 24 c-9 16 -21 30 -30 42c-15 19 -32 48 -49 77c-24 45 -36 61 -54 105l-20 -6c-5 -101 -7 -130 -9 -144l-10 -90c-4 -29 -10 -49 -34 -49c-3 0 -6 0 -10 1c-5 1 -9 2 -14 4c-28 -3 -54 10 -65 35l-5 12c-21 67 -30 165 -30 275v56c0 53 2 114 5 170c2 29 4 53 7 73 c3 17 4 34 5 53c3 41 7 86 19 114l6 13c10 23 33 37 57 37c8 0 16 -2 24 -5s15 -8 20 -15h10c5 0 15 0 29 1c43 1 72 -5 97 -26c4 -4 11 -10 21 -18c17 -14 30 -29 39 -45c12 -20 19 -32 27 -65c3 -15 4 -31 4 -46v-26c0 -7 0 -18 -1 -32c-4 -43 -31 -83 -44 -106 c-7 -10 -12 -17 -15 -22c-3 -4 -7 -11 -14 -22c-4 -5 -7 -10 -10 -15c3 -7 8 -18 14 -33c13 -32 32 -73 40 -89c8 -17 26 -49 41 -72c12 -21 20 -30 33 -46c7 -10 15 -21 22 -34l12 -20zM290 490c8 15 7 31 7 39v26c0 7 -1 14 -2 21c-1 4 -1 7 -2 10c-5 9 -12 22 -21 30 l-46 25c-5 -52 -8 -96 -8 -146c0 -22 1 -45 2 -71c13 6 51 32 70 66z"></glyph><glyph glyph-name="Rcaron" unicode="Ř" d="M471 71c4 -9 6 -18 6 -27c0 -7 -1 -13 -3 -20c-6 -16 -17 -28 -32 -35c-8 -4 -17 -6 -26 -6c-7 0 -14 1 -21 4c-16 6 -28 17 -35 32l-3 7l-9 20l-9 26c-4 10 -12 29 -25 57c-13 29 -35 80 -46 103l-20 -8l20 -189c2 -16 -3 -29 -10 -39c-7 -9 -15 -15 -25 -18 s-20 -4 -29 -4c-10 0 -18 1 -25 2s-11 2 -11 3c-14 7 -28 17 -41 31c-12 12 -23 28 -34 48c-11 19 -20 41 -28 66c-7 25 -11 54 -12 86l-2 77c-1 25 -1 49 -1 74c0 27 2 50 5 69c3 18 6 37 11 57c5 19 10 38 16 57c6 20 12 36 19 49c6 13 13 25 20 37s15 23 23 32 c7 8 13 15 20 21c8 9 16 16 25 21c7 5 15 9 24 13l8 3c7 3 14 5 22 5l-6 7c-7 8 -14 17 -21 28c-8 11 -15 21 -22 32c-9 15 -16 31 -20 46l-3 14c-2 6 -2 11 -2 16c0 11 3 21 9 31c9 15 21 24 37 28c5 1 10 2 16 2c10 0 21 -3 31 -9c15 -9 24 -21 28 -37l3 -14 c1 -3 2 -7 5 -11l15 -22l9 16c6 12 11 21 15 27l4 7c10 19 27 30 53 30c11 0 21 -3 31 -9c14 -9 23 -21 28 -38c1 -6 2 -11 2 -16c0 -11 -3 -21 -9 -30l-4 -7l-10 -18c-6 -13 -13 -26 -22 -39c-12 -19 -23 -32 -34 -40l-6 -4c-8 -5 -17 -9 -26 -10c-13 -10 -28 -14 -44 -13 l2 -4c15 -6 24 -10 27 -12c8 -6 17 -13 26 -22c10 -9 20 -20 31 -32c13 -16 23 -32 30 -49c9 -19 13 -37 12 -52c0 -11 -1 -22 -3 -33c-3 -13 -7 -26 -13 -39c-5 -9 -12 -20 -20 -32c-7 -11 -16 -23 -26 -35c-9 -11 -18 -21 -27 -30c9 -11 16 -25 23 -40l25 -50 c13 -25 26 -52 39 -82c14 -31 23 -53 28 -66l9 -25c1 -4 3 -8 5 -11zM231 419c39 0 74 44 74 101c0 28 -11 54 -24 71c-28 -56 -50 -136 -50 -172z"></glyph><glyph glyph-name="Rcommaaccent" unicode="Ŗ" d="M233 212c-1 -32 -1 -52 -1 -59v-93c0 -5 1 -9 1 -13c0 -53 -36 -72 -67 -72c-18 0 -33 7 -39 17c-5 -1 -10 -2 -15 -2c-33 0 -62 29 -62 62v479c0 31 3 153 7 181l2 20c4 32 35 57 68 54c14 -2 26 -8 36 -18c143 -53 249 -161 269 -262c1 -6 2 -12 2 -19 c0 -56 -48 -108 -125 -135c9 -11 16 -25 23 -40l25 -50c13 -25 26 -52 39 -82c14 -31 23 -53 28 -66l9 -25c1 -4 3 -8 5 -11l3 -7c4 -9 6 -18 6 -27c0 -7 -1 -13 -3 -20c-6 -16 -17 -28 -32 -35c-8 -4 -17 -6 -26 -6c-7 0 -14 1 -21 4c-16 6 -28 17 -35 32l-3 7l-9 20l-9 26 c-4 10 -12 29 -25 57c-13 29 -25 54 -36 77l-5 10zM229 446c51 9 68 31 68 49c0 4 -1 7 -2 10c-12 31 -16 65 -67 74v-50c0 -39 0 -66 1 -81v-2zM269 -58c37 0 57 -21 57 -53c0 -10 -2 -22 -6 -34c-2 -6 -3 -7 -11 -32l-4 -18c-5 -16 -14 -28 -29 -37c-9 -6 -20 -8 -30 -8 c-21 0 -42 11 -53 30c-6 10 -8 20 -8 31c0 5 0 10 1 15l3 23c1 10 16 39 17 39c19 34 39 44 63 44z"></glyph><glyph glyph-name="S" unicode="S" d="M388 639c0 37 -36 63 -67 77c-16 7 -57 17 -76 17c-31 0 -64 -18 -83 -45c-7 3 -15 5 -23 5c-51 0 -89 -76 -89 -124c0 -56 31 -114 49 -163c8 -23 16 -44 25 -60c28 -56 58 -110 85 -185c8 -19 11 -36 11 -55c0 -14 -1 -29 -4 -47c-12 11 -27 16 -42 16 c-37 0 -61 -31 -61 -62c0 -49 55 -84 114 -84c139 0 163 66 163 203c0 103 -43 225 -93 343c-24 56 -35 79 -35 131c8 -3 11 -4 16 -8c21 -15 32 -20 47 -20c36 0 63 28 63 61z"></glyph><glyph glyph-name="Sacute" unicode="Ś" d="M60 42c9 13 21 21 36 26c5 1 11 2 16 2c9 0 18 -2 27 -7c8 17 21 28 40 33l-2 16c-1 6 -3 15 -8 27c-8 19 -18 47 -30 82c-13 36 -21 61 -24 75l-12 54c-6 27 -10 52 -13 77l-5 65c-1 21 -2 36 -2 44c-1 9 -1 20 -1 35c0 16 0 29 1 38c1 15 6 31 14 46c11 20 28 36 53 48 l25 11c-16 1 -30 7 -41 19s-17 26 -17 42v10c0 9 2 19 5 28s5 15 8 19l11 16c9 13 21 27 34 42l31 35l11 11c12 12 27 19 45 19c16 0 30 -6 42 -17c12 -12 19 -27 19 -45c0 -17 -6 -31 -18 -43l-11 -11l-26 -29c-11 -13 -21 -25 -28 -36c-1 -11 -4 -22 -10 -32 c-7 -10 -15 -17 -26 -22c9 1 18 1 26 1h37c17 0 32 -6 44 -18s18 -26 18 -43s-6 -31 -17 -43c-12 -12 -26 -18 -42 -19l-1 -8c-1 -5 -1 -14 0 -27c1 -12 2 -25 4 -38c3 -14 8 -29 13 -46l14 -46c2 -8 6 -22 13 -41l22 -63c9 -24 16 -47 22 -68c7 -24 10 -46 11 -67 c1 -17 1 -33 1 -48c0 -19 -2 -37 -5 -54c-5 -21 -15 -40 -29 -57c-13 -14 -27 -25 -43 -34c-7 -5 -15 -9 -22 -12c-10 -13 -23 -25 -40 -35c-21 -13 -43 -19 -66 -19c-14 0 -25 0 -34 1c-17 2 -32 7 -45 16l-8 5c-17 12 -27 29 -27 52c0 12 3 23 10 33z"></glyph><glyph glyph-name="Scaron" unicode="Š" d="M185 885l5 8l8 14l5 11c7 15 18 26 35 32c7 2 14 3 21 3c9 0 17 -2 26 -5c15 -7 25 -19 31 -35c3 -8 4 -15 4 -22c0 -9 -2 -18 -6 -26l-5 -10c-4 -9 -9 -18 -14 -27l-12 -21l-10 -22c-3 -8 -9 -19 -17 -34c-5 -8 -10 -15 -15 -21c-5 -13 -14 -22 -27 -29 c-10 -5 -20 -8 -30 -8c-4 0 -7 1 -10 1l-6 2c-13 2 -23 6 -32 12c-9 5 -15 11 -18 16s-7 11 -10 19s-6 13 -7 14l-8 16c-1 2 -2 4 -3 5c-9 15 -16 32 -21 51s-9 36 -10 49c-1 4 -1 8 -1 12c0 16 7 30 38 41c11 5 21 7 30 7c32 0 55 -25 58 -45zM62 20c14 17 32 29 53 34 l24 6c3 1 7 2 11 4l26 14h1l1 16v5c-1 3 -3 9 -7 18c-5 13 -10 26 -15 41s-10 28 -14 41c-3 11 -7 20 -10 27l-11 29c-5 11 -9 22 -12 33l-11 31c-5 13 -9 28 -12 46c-4 17 -7 31 -8 42c-2 11 -3 25 -4 42l-1 39c0 11 0 23 1 38c1 24 7 45 17 62c6 10 13 20 20 31 c9 13 22 26 37 40l6 5c8 8 16 14 25 19c17 11 36 16 55 16h10l8 2c5 1 9 1 13 1c15 0 28 -5 40 -15l10 -4c18 -9 31 -17 39 -24l7 -4l9 -5c15 -8 24 -20 29 -37c1 -6 2 -11 2 -17c0 -10 -3 -20 -8 -30c-9 -15 -21 -24 -38 -28c-6 -2 -12 -3 -17 -3c-10 0 -20 3 -29 8l-9 6 c-8 4 -16 9 -23 15l-15 8l-8 3l-3 -1v-3c0 -11 1 -23 4 -35c3 -13 8 -27 15 -42c9 -19 16 -34 20 -46c5 -11 11 -28 20 -53s18 -60 29 -103c10 -40 18 -70 24 -91l17 -60c6 -21 9 -40 9 -55c0 -13 -1 -27 -4 -41c-2 -11 -6 -22 -12 -32c-6 -11 -12 -19 -17 -24 s-13 -11 -22 -18c-24 -20 -52 -35 -83 -44s-56 -13 -75 -12l-28 1h-27l-6 2c-3 1 -7 2 -14 5s-13 7 -18 10s-11 8 -17 14s-10 12 -13 19c-2 5 -3 10 -3 17c0 11 4 23 12 37z"></glyph><glyph glyph-name="Scedilla" unicode="Ş" d="M198 -123c-8 2 -17 7 -21 18c-2 5 -4 11 -4 18c0 13 6 28 19 44h-68c-17 0 -31 6 -43 18c-13 12 -19 27 -19 44s6 31 19 43c12 12 26 18 43 18h59c3 2 6 4 9 5v7c0 1 0 2 -1 3c-9 15 -21 40 -36 75s-27 67 -38 98l-30 83c-11 29 -19 56 -24 80c-5 23 -9 40 -10 51l-3 38 v28c0 19 6 37 18 55c8 11 16 21 25 29l25 21c13 11 25 20 36 27c13 7 25 14 38 19s24 8 33 10c8 1 17 2 27 2h9c17 0 31 -6 44 -18c12 -12 18 -26 18 -43s-6 -31 -18 -43c-12 -13 -26 -19 -43 -19h-16l-9 -4h-1c1 -5 2 -10 2 -15c0 -6 -1 -12 -3 -18l-1 -5v-7 c0 -5 1 -12 3 -22c3 -11 8 -24 15 -39l30 -60c11 -22 24 -47 37 -75l31 -63l15 -37c5 -12 10 -30 15 -54c5 -25 8 -43 8 -52v-23c0 -12 0 -24 -1 -35c-3 -24 -12 -51 -27 -72c-13 -18 -40 -41 -69 -47c43 -5 57 -29 57 -61s-8 -56 -19 -75c-19 -32 -40 -51 -57 -59 c-13 -6 -25 -10 -38 -11c-9 -1 -17 -2 -24 -2h-7c-17 0 -31 6 -43 18c-13 12 -19 26 -19 43s6 32 19 44c11 11 23 17 38 18v2z"></glyph><glyph glyph-name="Scircumflex" unicode="Ŝ" d="M163 653c-17 0 -31 6 -43 18c-13 12 -19 26 -19 43v10c0 11 2 26 6 44c4 17 9 33 14 47c4 12 10 26 17 43c6 15 10 26 12 34l4 16c3 17 15 32 34 45c12 9 24 13 36 13c7 0 14 -1 21 -4c15 -5 28 -14 40 -28c8 -8 16 -18 23 -29l13 -20c7 -10 13 -20 17 -31l4 -10 c3 -7 4 -14 4 -21c0 -9 -2 -17 -5 -25c-7 -16 -19 -27 -34 -33c-7 -3 -15 -4 -22 -4c-5 0 -9 0 -14 1c-13 3 -23 9 -32 18l-3 -9c-3 -8 -6 -17 -9 -28l-3 -19v-10c0 -17 -6 -31 -18 -43s-26 -18 -43 -18zM195 -61c-19 0 -35 2 -49 5c-13 3 -24 6 -32 10c-3 1 -7 3 -12 4 l-3 -2h-7c-3 1 -6 2 -9 4s-7 6 -12 12s-9 14 -12 24c-6 16 -9 30 -9 41c0 16 6 28 17 34c9 5 18 9 28 10c9 1 18 2 25 1l11 -2c19 -1 37 -4 54 -11c6 -3 11 -4 16 -4l19 -3h19c7 1 13 2 17 4c6 3 11 7 16 12c3 3 5 5 6 7c1 3 2 10 2 19c0 17 0 33 -1 50c0 14 -2 33 -5 57 c-3 23 -5 40 -8 50l-17 57c-8 25 -17 50 -26 75c-11 29 -18 55 -22 77c-4 21 -6 42 -6 63s2 40 5 56c5 19 12 37 23 52s25 28 41 38c18 11 36 16 54 16h19c7 0 16 -1 27 -2c14 -1 27 -4 38 -8c17 -6 32 -16 44 -30l7 -8c9 -11 14 -24 14 -39c0 -20 -7 -36 -21 -48 c-11 -10 -25 -15 -40 -15c-12 0 -22 3 -32 9v-19l1 -21c0 -4 0 -7 1 -9c2 -9 4 -21 5 -38c1 -12 3 -22 5 -30c1 -9 4 -21 9 -36s10 -31 16 -47l20 -49c7 -16 14 -36 22 -59c9 -25 14 -43 17 -54c4 -15 6 -30 6 -47v-34c0 -14 -1 -29 -4 -45c-3 -17 -7 -29 -10 -37 c-5 -13 -15 -26 -30 -39c-10 -9 -22 -18 -35 -25c-14 -9 -28 -15 -43 -20c-13 -4 -25 -7 -38 -9s-27 -3 -42 -3c-11 0 -19 0 -24 -1c-11 0 -25 2 -42 7h-13z"></glyph><glyph glyph-name="Scommaaccent" unicode="Ș" d="M50 21c0 17 6 31 18 43s27 18 44 18h9l12 1c7 19 21 31 40 37c0 2 0 3 1 4l-4 35c-1 18 -6 37 -14 58l-30 83c-11 32 -20 58 -25 77l-10 38l-9 37l-10 45c-3 16 -6 31 -7 45c-2 15 -3 31 -3 46c0 17 1 33 4 46c4 17 10 32 18 43s21 23 40 36c15 11 28 19 39 24 s23 10 36 15l15 5c6 2 12 3 18 3c10 0 19 -3 29 -7c15 -8 26 -20 31 -35c2 -7 3 -13 3 -19c0 -10 -2 -19 -7 -28c-8 -15 -20 -26 -35 -31l-16 -5l-11 -4c9 -12 14 -24 14 -37c0 -7 -1 -14 -4 -22l-3 -9v-11c1 -9 3 -19 7 -30c6 -16 13 -32 22 -49l20 -43l18 -34l27 -50 l23 -48c7 -15 13 -31 18 -46c6 -17 10 -29 11 -37c1 -6 3 -15 4 -28c2 -13 3 -27 3 -41c0 -21 -5 -41 -15 -60c-9 -17 -20 -31 -34 -42c-28 -23 -51 -38 -96 -60c-31 -15 -78 -25 -120 -25h-9c-17 0 -32 6 -44 18s-18 27 -18 44zM269 -58c37 0 57 -21 57 -53 c0 -10 -2 -22 -6 -34c-2 -6 -3 -7 -11 -32l-4 -18c-5 -16 -14 -28 -29 -37c-9 -6 -20 -8 -30 -8c-21 0 -42 11 -53 30c-6 10 -8 20 -8 31c0 5 0 10 1 15l3 23c1 10 16 39 17 39c19 34 39 44 63 44z"></glyph><glyph glyph-name="T" unicode="T" d="M113 586c9 0 18 2 27 7c23 10 28 11 28 6c-1 -13 -1 -26 -1 -40c0 -39 2 -82 6 -118c14 -141 19 -242 21 -385c0 -32 24 -58 55 -62c9 -21 32 -38 57 -38c33 0 61 29 61 62c0 55 -8 214 -8 430c0 59 3 111 10 160c16 -4 43 -4 43 -4c0 -1 61 27 61 60 c0 62 -56 67 -149 67h-56c-112 0 -218 -12 -218 -83c0 -38 31 -62 63 -62z"></glyph><glyph glyph-name="Tbar" unicode="Ŧ" d="M463 414c9 -11 14 -23 14 -37c0 -20 -6 -36 -21 -49c-13 -11 -27 -17 -44 -15l-17 1c-1 0 -4 1 -8 0c-9 1 -18 1 -27 1c2 -148 7 -254 7 -297c0 -33 -28 -62 -61 -62c-25 0 -48 17 -57 38c-31 4 -55 30 -55 62c-1 89 -4 162 -9 238c-3 -1 -7 -1 -11 -2 c-7 -1 -15 -2 -21 -2h-4l-13 -1l-7 -2c-17 -2 -32 2 -46 11c-13 11 -22 24 -24 41c0 24 5 36 9 43c10 16 25 24 43 27l7 1c7 0 14 1 24 3c3 0 7 0 11 1c9 2 16 3 22 4c0 7 -1 15 -2 23c-4 36 -6 79 -6 118c0 14 0 27 1 40c0 5 -5 4 -28 -6c-9 -5 -18 -7 -27 -7 c-32 0 -63 24 -63 62c0 71 106 83 218 83h56c93 0 149 -5 149 -67c0 -33 -61 -61 -61 -60c0 0 -27 0 -43 4c-7 -49 -10 -101 -10 -160v-11h29c6 0 11 0 16 -1l18 -1c17 -2 30 -8 41 -21z"></glyph><glyph glyph-name="Tcaron" unicode="Ť" d="M50 623c0 17 6 31 18 44c12 12 27 18 44 18h40c-5 3 -11 7 -17 12c-9 5 -17 12 -22 20l-6 9l-8 13l-2 3c-6 10 -12 22 -18 36l-10 22c-6 15 -10 26 -11 33l3 3l7 9l12 12c3 4 8 9 14 14c5 5 11 9 16 12s11 6 17 9s12 4 17 5h1c5 0 9 -2 14 -4c5 -3 9 -7 12 -13 c5 14 15 25 28 33c9 5 19 8 29 8c4 0 9 -1 13 -2c16 -3 29 -11 39 -25c7 -11 10 -22 10 -34c0 -5 0 -9 -1 -13l-2 -9l-5 -26c-2 -11 -5 -23 -8 -34c-4 -16 -11 -33 -20 -51c-5 -17 -14 -30 -28 -40l57 2h35l17 1l12 1c17 1 32 -4 45 -15c14 -13 21 -29 21 -48 c0 -12 -3 -23 -10 -33c-9 -12 -20 -20 -33 -25v-176c0 -13 -1 -29 -2 -47s-3 -36 -6 -55c-3 -15 -4 -27 -5 -38c-1 -16 -7 -45 -17 -87c-10 -41 -19 -72 -26 -92c-7 -21 -14 -37 -20 -50c-7 -13 -14 -24 -20 -32l-6 -6l-15 -10c-8 -5 -16 -8 -23 -9c-3 0 -5 -1 -7 -1 c-6 0 -13 2 -20 4c-10 3 -19 10 -28 20c-4 5 -7 10 -10 15s-4 9 -5 13l-1 9c-1 2 -1 4 0 7v190c0 43 1 74 2 92c1 16 1 52 1 107v138h-50c-17 0 -32 6 -44 18s-18 26 -18 43z"></glyph><glyph glyph-name="uni021A" unicode="Ț" d="M244 -21c-17 0 -31 6 -43 18c-13 12 -19 26 -19 43v62l-2 63c-1 25 -2 52 -5 79c-3 29 -5 62 -7 99c-2 35 -5 69 -8 103c-4 35 -7 66 -8 92l-2 28c-14 -8 -27 -12 -40 -12c-12 0 -23 4 -33 12c-13 9 -22 21 -25 36c-1 5 -2 10 -2 14c0 12 4 22 10 33c9 15 21 24 38 27 l9 2l18 5l118 38c43 14 58 18 68 19l19 2c9 2 19 3 29 3h13c16 1 31 -5 44 -16c12 -12 19 -26 20 -43c0 -16 -5 -31 -17 -44c-11 -12 -26 -19 -43 -20h-12c-4 0 -29 -6 -32 -7v-34c0 -8 3 -28 8 -60c6 -37 12 -83 18 -139c7 -56 10 -98 11 -127c1 -27 1 -54 1 -80v-86 c-3 -48 -25 -99 -91 -99c-11 -7 -22 -11 -35 -11zM253 -240c-37 0 -57 21 -57 53c0 10 2 22 6 34c2 6 3 7 11 32l4 18c5 16 14 28 29 37c9 6 20 8 30 8c21 0 42 -11 53 -30c6 -10 8 -20 8 -31c0 -5 0 -10 -1 -15l-3 -23c-1 -10 -16 -39 -17 -39c-19 -34 -39 -44 -63 -44z "></glyph><glyph glyph-name="U" unicode="U" d="M260 -28c13 -5 27 -7 42 -7c117 0 153 180 153 359c0 157 4 311 4 386c0 35 -27 62 -61 62s-62 -27 -62 -62c0 -115 -4 -108 -4 -185v-252c0 -69 -9 -100 -37 -176c-32 50 -45 122 -45 198c0 264 2 291 2 391c0 16 -5 30 -16 41c-7 29 -35 47 -59 47 c-107 0 -127 -267 -127 -465v-70c0 -49 1 -65 9 -89c24 -88 102 -187 172 -187c9 0 19 3 29 9z"></glyph><glyph glyph-name="Uacute" unicode="Ú" d="M154 730c-16 7 -27 18 -33 34c-4 8 -5 16 -5 24c0 7 1 15 4 22l6 14c7 15 20 34 40 55l40 43l19 20c13 13 28 20 46 20c16 0 30 -5 42 -16c12 -13 19 -28 19 -46c0 -16 -6 -30 -17 -42l-19 -20l-41 -44c-8 -8 -13 -14 -16 -19l-5 -12c-7 -15 -18 -26 -33 -33 c-8 -3 -16 -5 -24 -5s-16 2 -23 5zM119 719c19 0 34 -7 46 -21c11 -13 16 -28 15 -45l-3 -42c-1 -13 -1 -29 -1 -47s0 -39 1 -62c1 -47 5 -96 12 -146c3 -30 7 -56 12 -79c11 32 16 63 17 94c2 49 3 89 3 120c0 29 -1 52 -3 68l-5 46c-1 15 -2 26 -2 34v8c0 17 6 31 19 43 c12 12 26 18 43 18c16 0 30 -5 42 -16c11 -11 18 -25 19 -41c10 -5 18 -13 25 -22c6 -10 9 -21 9 -33v-30l-1 -65c-1 -32 -1 -68 -1 -107v-110c0 -37 -3 -70 -8 -98c-5 -27 -10 -50 -16 -67c-6 -22 -15 -42 -28 -60c-12 -18 -23 -31 -32 -38c-15 -13 -33 -20 -55 -20 c-129 0 -177 150 -177 496c0 46 4 137 7 164c2 17 9 31 22 42c11 10 25 16 40 16z"></glyph><glyph glyph-name="Ubreve" unicode="Ŭ" d="M179 847c11 8 24 12 37 12c21 0 37 -8 49 -23l8 -10l3 -3c1 -1 3 -1 5 -1c0 1 0 1 1 1c3 2 4 4 5 6l4 9l3 28l1 8v16c0 17 6 31 19 44c12 12 26 18 43 18s31 -6 43 -18c12 -13 18 -27 18 -44v-26l-3 -20c-1 -3 -1 -8 -1 -13c-1 -16 -6 -34 -15 -53 c-10 -23 -26 -41 -47 -56c-22 -15 -44 -23 -66 -23c-14 0 -26 2 -37 4c-16 3 -31 9 -45 20c-11 8 -20 17 -28 27l-7 10c-9 11 -13 24 -13 38c0 20 8 37 23 49zM288 -12c-14 1 -27 6 -40 13c-5 0 -10 0 -14 1c-15 1 -31 5 -46 12c-13 6 -27 14 -40 24s-25 21 -36 33 s-21 25 -29 40c-7 13 -13 26 -18 39c-7 16 -11 31 -13 46c-1 11 -2 24 -2 38v54c1 26 2 54 5 83s7 57 12 82c5 27 11 54 20 80l24 64c7 15 12 28 15 39l11 4c4 1 12 4 23 7s22 5 32 6s20 1 30 0s18 -4 23 -9c4 -4 6 -9 6 -16c0 -2 0 -5 -1 -8v-37c0 -15 -1 -30 -4 -45 c-2 -10 -3 -25 -4 -46c-1 -23 -2 -42 -2 -57v-44c0 -12 1 -32 4 -61c2 -27 9 -65 22 -114c12 -45 20 -72 24 -83l2 -4l2 1c7 4 16 7 25 8c4 9 8 19 12 30c5 17 10 34 13 49c3 14 6 34 8 59c1 27 2 56 2 86c0 31 0 61 1 88c0 29 0 54 1 75c1 27 3 48 8 64l5 17 c4 16 14 28 29 37c9 5 19 8 29 8c6 0 12 -1 18 -3c16 -5 28 -14 37 -29c5 -9 8 -19 8 -29c0 -6 -1 -12 -3 -18l-5 -16c-1 -7 -2 -18 -3 -35c-1 -21 -1 -45 -1 -72c-1 -27 -1 -56 -1 -87c0 -32 -1 -63 -3 -94c-2 -33 -5 -59 -10 -79c-5 -19 -10 -38 -16 -58 c-7 -22 -15 -42 -24 -59c-11 -19 -21 -34 -32 -45c-11 -10 -24 -19 -41 -27c-19 -9 -40 -13 -63 -12z"></glyph><glyph glyph-name="Ucircumflex" unicode="Û" d="M218 727c-17 -1 -31 5 -44 16s-21 24 -22 41l-1 15c-1 13 0 30 2 50c3 21 8 41 15 60l10 26c3 8 7 17 12 27c5 9 9 18 14 26c9 15 19 24 31 29c6 3 12 4 18 4c5 0 10 -1 15 -3c10 -4 20 -9 29 -16s17 -14 22 -19l8 -10c7 -15 13 -34 20 -59c6 -21 11 -37 14 -46 c2 -7 5 -14 9 -21l7 -14c5 -9 7 -18 7 -28c0 -6 -1 -12 -2 -18c-5 -17 -15 -29 -30 -37c-9 -5 -18 -7 -28 -7c-5 0 -10 0 -15 2c-15 3 -28 12 -37 25c-4 -12 -11 -22 -21 -29c-10 -8 -21 -13 -33 -14zM294 4c-6 -9 -12 -17 -19 -25l-6 -6l-6 -8l-6 -6c-3 -3 -7 -5 -10 -7 l-11 -6c-10 -5 -22 -8 -35 -10c-6 -1 -11 -1 -17 -1c-9 0 -19 1 -27 4c-7 2 -13 5 -18 8s-10 6 -13 10l-8 8c-2 2 -4 6 -7 11l-4 7c-9 15 -17 33 -24 55c-7 21 -11 38 -13 51l-2 9c-1 6 -3 12 -5 19c-7 21 -11 43 -12 66c0 12 -1 27 -1 47c0 9 0 20 1 32v64c1 7 2 18 3 32 c1 15 4 32 7 49l7 30c-5 58 -8 106 -10 145s-3 65 -3 78v17c0 17 6 31 18 44c12 12 26 18 43 18s31 -6 44 -18c12 -13 18 -27 18 -44v-17c0 -11 1 -35 3 -72c1 -33 4 -73 8 -122c3 -7 5 -15 5 -23c0 -5 -1 -11 -2 -16c4 -50 8 -97 13 -142c2 -25 5 -45 8 -62 c3 -13 5 -24 7 -31c4 -10 9 -20 14 -29l3 9c4 14 8 41 11 81c3 43 5 89 5 138v206c0 41 1 65 2 74c3 19 16 35 41 47c11 5 22 8 32 8c11 0 22 -3 31 -10c5 -3 10 -7 13 -10s6 -7 9 -11l6 -9l6 -11c2 -5 3 -9 4 -10c3 -6 5 -13 7 -20c6 -21 10 -51 11 -88c1 -21 1 -43 1 -66 c0 -24 0 -49 -1 -76c-1 -56 -6 -109 -15 -159c-8 -51 -15 -86 -22 -105c-6 -17 -16 -42 -30 -73l-7 -19c-3 -9 -6 -16 -8 -20c-3 -5 -7 -10 -14 -17s-15 -13 -25 -18z"></glyph><glyph glyph-name="Udieresis" unicode="Ü" d="M213 800c3 -8 4 -15 4 -23s-1 -17 -5 -25l-4 -7c-5 -13 -15 -24 -30 -33c-11 -7 -23 -11 -35 -11c-4 0 -7 0 -11 1c-17 2 -31 11 -43 28c-11 14 -16 27 -16 41c0 3 1 6 1 9c1 3 1 10 1 19c2 31 14 55 37 70l10 6c10 7 21 11 33 11c23 0 41 -10 52 -27 c8 -11 11 -23 11 -34c0 -8 -1 -17 -5 -25zM299 823c5 13 13 24 25 32c11 8 24 11 38 10h10c12 -1 24 -6 36 -13s21 -17 27 -28c7 -13 11 -26 12 -40c1 -12 -2 -24 -7 -37s-13 -24 -24 -31c-15 -11 -32 -16 -51 -16c-7 0 -15 0 -23 1c-15 1 -31 9 -46 26 c-13 13 -19 27 -19 43c0 4 1 9 2 14l2 7c3 12 9 23 18 32zM78 519c1 13 1 24 1 35c1 18 2 32 4 41l53 11c11 2 22 3 30 3c28 0 41 -9 40 -27c-1 -3 -1 -13 -1 -29c0 -12 -1 -27 -4 -44v-66c0 -14 1 -38 3 -73c2 -33 6 -70 12 -109c3 -19 6 -34 9 -47c3 -9 5 -17 8 -22l8 4 l7 12c4 7 7 20 10 39l9 70c2 21 4 49 5 82c1 36 4 69 8 98c5 35 12 60 21 77l8 15c7 15 19 25 36 30c6 2 12 3 19 3c9 0 19 -2 28 -7c15 -8 25 -20 30 -36c1 -7 2 -13 2 -19c0 -10 -2 -19 -7 -28l-7 -15c-3 -6 -5 -18 -8 -36c-3 -26 -6 -55 -7 -87c-1 -35 -3 -65 -6 -90 c-1 -10 -2 -21 -4 -32c7 -11 11 -22 11 -34c0 -4 0 -7 -1 -11l-3 -18c-3 -16 -9 -36 -19 -59c-8 -21 -16 -38 -24 -53c-9 -16 -16 -28 -21 -35l-10 -19c-7 -15 -15 -29 -24 -43c-15 -25 -35 -42 -59 -50c-13 -5 -25 -7 -38 -7c-8 0 -16 1 -24 3c-19 5 -35 14 -49 29 c-9 9 -16 19 -22 28c-7 9 -14 22 -21 39l-13 32c-3 8 -7 17 -10 26c-5 16 -8 35 -8 58v52l1 70c1 27 3 59 6 94c3 36 9 73 16 111z"></glyph><glyph glyph-name="Ugrave" unicode="Ù" d="M266 696c-12 -15 -28 -23 -48 -23c-14 0 -27 5 -38 14l-14 11c-6 5 -13 10 -22 15l-36 22c-14 9 -25 17 -32 23l-6 7c-13 12 -20 27 -20 45c0 16 5 30 16 42c12 12 27 19 45 19c16 0 30 -5 42 -16l6 -6l15 -10c11 -7 21 -13 32 -19c14 -9 27 -18 39 -27l13 -11 c14 -12 22 -28 22 -48c0 -15 -5 -27 -14 -38zM123 689c19 0 35 -7 47 -21c11 -13 16 -28 15 -45l-1 -15c0 -4 -1 -14 -1 -30s1 -37 1 -64c1 -52 7 -112 18 -180c5 -27 9 -51 14 -73l6 85c4 40 7 74 8 103c2 30 4 55 7 76l4 36v18l-1 15c0 17 6 31 18 44c12 12 27 19 45 19 c15 0 29 -5 41 -16c12 -12 18 -26 19 -43l1 -15v-1c17 -13 26 -29 26 -50v-24c0 -15 1 -37 2 -65s2 -59 5 -92c3 -35 6 -66 7 -93c1 -19 1 -37 1 -55c0 -43 -3 -75 -13 -97c-5 -13 -14 -29 -26 -48c-13 -21 -26 -37 -40 -49c-9 -9 -19 -17 -29 -24c-19 -16 -42 -25 -70 -28 c-10 -1 -18 -1 -26 -1s-14 0 -20 1c-23 2 -43 13 -60 33c-12 14 -22 34 -30 60l-8 28c-2 6 -3 12 -3 18c0 9 2 17 6 26c7 14 17 24 32 30c-13 39 -26 93 -37 161c-13 75 -19 141 -20 200c0 28 -1 51 -1 68s1 29 1 35l1 15c1 17 8 31 21 42c12 10 25 16 40 16z"></glyph><glyph glyph-name="Uhungarumlaut" unicode="Ű" d="M270 635c-16 12 -25 28 -25 50c0 13 4 25 12 36l6 9l8 10l-25 -21c-11 -9 -20 -17 -28 -22l-10 -8c-11 -9 -23 -13 -36 -13c-22 0 -38 8 -50 24c-9 11 -13 23 -13 36c0 22 9 38 24 50l10 8l18 15c8 7 20 16 36 29l24 18c11 9 22 13 36 13c21 0 38 -8 50 -24 c9 -11 13 -23 13 -37s-4 -26 -13 -37c12 9 27 19 45 31l31 22c11 8 22 12 35 12c22 0 39 -10 51 -27c7 -11 11 -22 11 -34c0 -23 -10 -40 -27 -52l-31 -22c-20 -14 -36 -25 -47 -34c-7 -5 -11 -8 -14 -11l-2 -3c9 5 19 8 30 8c17 0 31 -6 44 -18c12 -13 18 -27 18 -44v-32 c0 -10 1 -31 2 -62c1 -33 2 -65 2 -98c0 -41 1 -77 1 -107c0 -20 0 -40 -2 -59c-2 -26 -6 -53 -12 -80c-7 -31 -13 -52 -20 -64c-5 -9 -12 -19 -20 -30c-9 -13 -21 -26 -35 -39c-15 -14 -31 -24 -46 -30c-14 -7 -29 -11 -44 -12c-11 -1 -20 -2 -29 -2c-18 0 -34 4 -49 13 l-8 4c-11 7 -19 16 -24 27c-4 8 -6 17 -6 25l1 10l-3 5l-3 6l-3 4c-21 33 -36 66 -43 98c-6 27 -14 67 -24 122s-18 106 -24 155c-7 49 -10 83 -11 101l-1 25c-1 17 5 31 17 44c12 12 27 19 45 19c15 0 29 -5 41 -16c13 -11 19 -26 20 -43l1 -24c1 -14 4 -44 10 -90 c6 -47 14 -97 23 -149c9 -53 17 -91 23 -116c3 -16 10 -33 21 -51c7 29 12 64 16 106c4 48 6 84 6 109v61c0 13 0 27 -1 41c0 12 -1 24 -3 36l-6 32l-3 18l-2 11c-1 5 -1 9 -1 13c0 19 9 35 26 48c-5 2 -9 4 -13 7z"></glyph><glyph glyph-name="Umacron" unicode="Ū" d="M106 838c0 12 4 23 12 34c10 14 23 23 40 26l11 1l33 6c17 3 33 5 49 6c7 1 15 2 24 5l33 7l23 3l13 1c17 1 32 -4 45 -15c14 -13 21 -28 21 -47c0 -15 -5 -28 -14 -39c-11 -13 -25 -21 -42 -22l-12 -1l-16 -2c-3 -1 -10 -2 -20 -5c-17 -4 -33 -7 -49 -8 c-9 0 -20 -1 -33 -4l-46 -8c-3 -1 -7 -1 -10 -1c-12 0 -24 4 -35 12c-17 12 -27 29 -27 51zM180 720c17 0 32 -6 44 -18c12 -13 18 -27 18 -44v-38c0 -9 3 -50 9 -123l12 -144v-4l6 18c9 31 15 60 18 86c4 27 7 45 8 56c1 10 1 27 2 52v135c0 17 6 31 19 43 c12 12 26 18 43 18s31 -6 43 -18s18 -26 18 -43v-137c-1 -27 -2 -48 -3 -61c0 -5 -1 -10 -2 -17c15 -13 23 -29 22 -48l-1 -10c0 -9 -1 -19 -3 -31l-5 -35l-9 -43l-9 -37c-3 -15 -7 -29 -11 -43s-9 -28 -14 -42c-6 -15 -14 -30 -23 -47c-8 -16 -17 -31 -27 -45 c-9 -14 -16 -25 -22 -33l-21 -29c-15 -20 -31 -34 -48 -41c-15 -6 -28 -9 -41 -9c-16 0 -32 4 -47 13c-20 12 -34 31 -41 58c-2 8 -4 14 -5 17c-5 11 -8 28 -11 50l-5 36c-2 11 -4 27 -5 46c-1 17 -3 39 -6 68c-4 31 -7 62 -9 94c-2 30 -4 59 -7 88c-3 28 -7 52 -10 71 c-4 23 -6 40 -7 50v24c0 17 6 32 18 44s27 18 44 18l7 -1c2 16 9 29 21 40c11 11 25 16 40 16z"></glyph><glyph glyph-name="Uogonek" unicode="Ų" d="M486 681c5 -9 8 -19 8 -29c0 -6 -1 -12 -3 -18l-5 -16c-1 -7 -2 -18 -3 -35c-1 -13 -6 -181 -6 -223c0 -32 -1 -63 -3 -94c-2 -33 -5 -59 -10 -79c-5 -19 -10 -38 -16 -58c-7 -22 -15 -42 -24 -59c-11 -19 -21 -34 -32 -45c-29 -30 -39 -53 -42 -60c-1 -1 -3 -6 -4 -14 c-1 -7 -2 -17 -2 -31c0 -5 1 -8 3 -10c5 -6 9 -10 14 -13c6 -3 10 -4 13 -4c9 -1 16 -1 20 -1h9c17 0 31 -6 43 -19c12 -12 18 -26 18 -43s-6 -31 -18 -43s-26 -18 -43 -18h-9c-7 0 -17 0 -30 1c-18 1 -37 7 -57 17c-21 10 -40 25 -56 46c-19 25 -29 53 -30 85 c0 23 2 43 5 59l6 23c-15 2 -29 6 -44 12c-13 6 -27 14 -40 24s-25 21 -36 33s-21 25 -29 40c-7 13 -13 26 -18 39c-7 16 -11 31 -13 46c-1 11 -2 24 -2 38v54c1 26 3 54 5 83c14 163 26 198 60 290c7 15 12 28 15 39c3 1 6 3 11 4c4 1 12 4 23 7s22 5 32 6c5 1 10 1 15 1 s10 0 15 -1c10 -1 18 -4 23 -9s7 -13 5 -24c0 -100 -10 -95 -14 -293c0 -12 1 -32 4 -61c2 -27 9 -65 22 -114c12 -45 20 -72 24 -83c1 -1 1 -2 2 -4l2 1c7 4 16 7 25 8c4 9 8 19 12 30c5 17 10 34 13 49c3 14 6 34 8 59c1 27 2 56 2 86c0 42 5 213 6 227c1 27 3 48 8 64 l5 17c4 16 14 28 29 37c9 5 19 8 29 8c6 0 12 -1 18 -3c16 -5 28 -14 37 -29z"></glyph><glyph glyph-name="Uring" unicode="Ů" d="M306 -28c-11 -9 -24 -13 -38 -13h-8c-7 0 -16 1 -26 2c-15 1 -30 5 -44 12c-13 7 -26 16 -39 28l-19 17c-9 8 -19 20 -30 37l-19 31c-6 9 -12 25 -19 46c-7 23 -12 53 -13 89c-1 30 -1 58 -1 84c0 27 2 58 5 92c4 35 9 66 16 95c7 33 17 60 29 83c13 22 25 39 38 52 c13 12 24 21 33 27c15 9 31 14 48 15h3c-5 3 -9 7 -12 10c-7 7 -13 14 -19 23c-7 9 -11 20 -13 33c-1 4 -2 9 -2 13c0 9 2 18 5 28l3 8c9 21 25 34 48 38c-11 3 -20 9 -27 18c-8 8 -13 17 -16 28c-1 4 -1 8 -1 12c0 12 3 23 10 34c9 15 22 24 38 27l10 2c17 3 34 5 50 5 c97 0 159 -62 159 -137c0 -85 -48 -167 -159 -167c-6 0 -12 0 -19 1c11 -11 17 -25 17 -40c0 -18 -6 -35 -17 -52c-2 -7 -5 -15 -9 -24c-2 -4 -5 -11 -8 -22c-4 -14 -8 -27 -12 -38c-5 -13 -11 -31 -20 -52c-5 -12 -8 -28 -9 -48c0 -13 -1 -27 -1 -41c0 -13 1 -27 1 -41 c0 -23 5 -50 16 -81c10 -31 19 -53 28 -65c11 -15 21 -27 30 -36c1 -2 3 -4 5 -5l7 13c5 10 10 22 13 35c4 15 8 36 12 64c4 30 8 60 11 90l10 94c3 27 7 53 10 77c2 20 3 38 3 53v48c0 17 6 32 19 44c12 12 26 18 43 18s31 -6 43 -18s18 -27 18 -44v-48 c0 -20 -1 -43 -4 -68l-9 -77c-4 -29 -8 -59 -11 -90c-3 -33 -7 -64 -11 -95c-5 -33 -10 -60 -15 -81c-6 -21 -13 -40 -22 -57s-17 -31 -25 -40c-7 -8 -16 -16 -26 -24c-18 -14 -37 -21 -58 -22zM259 820l5 -2c20 -7 32 -22 37 -43c7 -4 13 -5 19 -5c17 0 27 16 27 32 c0 19 -13 40 -43 40l-25 -9c-9 -9 -19 -13 -20 -13z"></glyph><glyph glyph-name="V" unicode="V" d="M281 385c-22 104 -37 179 -37 236v75c0 33 -28 62 -61 62c-13 0 -25 -4 -36 -12c-11 8 -22 12 -35 12c-33 0 -62 -29 -62 -62c0 -205 6 -448 95 -613c-1 0 43 -79 48 -86c11 -18 27 -28 48 -30c7 -12 18 -18 29 -18c30 0 64 30 91 57c15 52 25 106 46 321 c20 201 66 340 66 377c0 32 -24 62 -61 62c-26 0 -50 -17 -59 -43c-14 -54 -33 -136 -46 -203c-3 -13 -9 -61 -18 -135h-8z"></glyph><glyph glyph-name="W" unicode="W" d="M658 697c0 -10 -2 -17 -12 -46c5 37 -57 -282 -62 -325c-5 -51 -14 -143 -25 -192c-14 -68 -35 -133 -98 -133c-16 0 -33 13 -45 41c-6 15 -33 122 -33 135c-15 -91 -38 -171 -97 -171c-15 0 -38 5 -52 19c-4 -1 -9 -1 -13 -1c-21 0 -42 10 -53 29 c-33 57 -52 118 -75 246c-27 141 -43 265 -43 383c0 33 27 61 62 61c14 0 27 -5 39 -14c10 7 21 10 33 10c35 0 62 -28 62 -61v-12c0 -6 1 -17 2 -32s5 -38 11 -68c15 -82 15 -128 23 -200l10 2c3 20 5 98 7 110c3 14 4 23 5 27c0 18 4 35 11 69c3 25 15 38 37 38 c25 0 37 -7 88 -35c1 -7 4 -20 8 -39c7 -33 14 -138 20 -171l11 -2c0 64 9 160 25 215c-3 -10 17 84 20 88c13 53 28 91 73 91c37 0 61 -30 61 -62z"></glyph><glyph glyph-name="Wacute" unicode="Ẃ" d="M353 733c-24 5 -35 10 -45 20c-10 11 -16 25 -16 40c0 19 7 34 20 46l12 11l32 27c14 12 29 23 46 33l21 13c10 6 20 10 32 10c24 0 41 -11 52 -29c6 -11 10 -21 10 -33c0 -24 -11 -41 -30 -52l-21 -13c-11 -7 -21 -15 -32 -23l-27 -24l-12 -11c-11 -11 -25 -16 -42 -15z M471 374c4 31 14 100 16 115l27 157c4 22 11 41 20 59l5 11l6 9c2 4 4 8 8 11c2 3 6 6 11 9c3 3 8 5 13 7s11 3 18 4c3 0 6 1 9 1c4 0 8 -1 12 -2l7 -1c17 -3 30 -11 40 -25c8 -11 11 -23 11 -35c0 -26 -12 -45 -36 -56c-2 -6 -3 -12 -4 -18l-26 -155 c-7 -42 -18 -89 -27 -144l-23 -137l-13 -75c-3 -16 -5 -30 -8 -41l-4 -17c-3 -19 -9 -31 -19 -38c-5 -3 -11 -4 -17 -4c-5 0 -11 1 -16 3c-12 5 -24 12 -36 19s-32 33 -39 52c-12 32 -19 63 -24 91c-11 -64 -23 -100 -34 -123c-1 -2 -2 -4 -3 -5c-1 -4 -8 -13 -14 -20 s-18 -14 -29 -18c-5 -2 -10 -2 -16 -2c-8 0 -17 1 -26 4c-11 3 -19 8 -26 15c-4 -1 -9 -1 -13 -1c-21 0 -42 10 -53 29l-6 9c-5 9 -11 20 -16 34c-3 10 -6 19 -9 27c-6 16 -14 36 -23 73c-8 35 -13 58 -21 103c-9 47 -16 86 -21 125c-3 20 -6 40 -8 61l-8 72 c-4 31 -6 52 -6 65v60c0 33 27 61 62 61c14 0 27 -5 39 -14c10 7 21 10 33 10c35 0 62 -28 62 -61v-12c0 -6 1 -17 2 -32s5 -38 11 -68c6 -32 13 -67 20 -106c2 -14 7 -40 10 -62h7c1 32 1 67 3 80c3 14 4 23 5 27c0 12 3 33 8 58l3 11c1 37 28 56 57 56s60 -18 68 -53 c1 -7 4 -20 8 -39c6 -32 10 -122 16 -164h7z"></glyph><glyph glyph-name="Wcircumflex" unicode="Ŵ" d="M178 681c-21 0 -38 9 -50 26c-11 13 -15 28 -13 45l2 12c2 15 9 33 20 55c7 13 13 25 17 35l13 34c5 13 9 23 12 28c7 16 18 29 33 40c15 10 29 15 42 15c12 0 22 -3 30 -9s15 -13 22 -20c6 -8 11 -15 14 -21l4 -10c11 -23 19 -45 23 -68c3 -15 6 -28 9 -39l5 -20 c2 -6 3 -11 3 -17c0 -10 -3 -20 -8 -29c-9 -15 -21 -25 -37 -30c-6 -2 -11 -3 -17 -3c-10 0 -20 3 -29 9c-15 8 -25 20 -30 36l-1 4l-3 -9l-2 -11c-2 -17 -10 -30 -23 -40c-11 -9 -23 -13 -36 -13zM483 728c15 -7 26 -18 33 -34c2 -7 4 -15 4 -22c0 -8 -2 -17 -6 -25l-4 -9 l-6 -19c-3 -8 -5 -20 -6 -35c-2 -18 -4 -45 -7 -82c-3 -39 -7 -75 -12 -108l-15 -100c-5 -37 -10 -69 -15 -97c-5 -29 -10 -52 -16 -70c-5 -17 -8 -28 -11 -35l-3 -10c-5 -13 -13 -23 -24 -30c-12 -8 -25 -12 -38 -11c-11 -7 -22 -10 -33 -10c-16 0 -31 9 -44 26 c-7 -12 -14 -21 -21 -28c-8 -7 -16 -12 -23 -13c-3 0 -6 -1 -9 -1c-5 0 -10 1 -15 3c-8 2 -15 5 -21 8s-12 8 -18 13l-12 10c-2 2 -4 3 -5 4c-19 21 -37 55 -53 101c-13 40 -24 84 -33 132s-15 91 -17 128l-3 89v101c0 17 6 31 18 43s27 18 44 18s31 -6 43 -18 s18 -26 18 -43v-100l3 -84c1 -17 2 -36 5 -57l3 62c1 46 2 80 2 102c0 44 22 73 55 73c42 0 68 -26 68 -48c0 -4 1 -10 3 -17l8 -49c3 25 7 48 11 70c9 47 16 81 23 103l9 31c5 16 15 28 30 36c9 5 19 8 29 8c5 0 11 -1 17 -3c1 0 1 0 1 -1c7 2 13 3 20 3c8 0 16 -2 23 -5z "></glyph><glyph glyph-name="Wdieresis" unicode="Ẅ" d="M490 878c-17 0 -32 -6 -44 -18c-12 -13 -18 -27 -18 -44v-19c0 -17 6 -31 18 -43s27 -18 44 -18s31 6 43 18s18 26 18 43v19c0 17 -6 31 -18 44c-12 12 -26 18 -43 18zM230 756c11 -17 28 -27 51 -27c12 0 24 3 34 10l6 4c11 7 19 17 26 31c4 10 6 19 6 29c0 4 0 9 -1 13 l-1 7c-3 16 -12 29 -26 39c-11 7 -22 10 -35 10c-4 0 -8 0 -12 -1c-11 -3 -21 -8 -30 -16s-14 -18 -17 -29c-8 -11 -11 -23 -11 -38c0 -11 4 -22 10 -32zM468 367c-6 33 -13 138 -20 171c-4 19 -7 32 -8 39l-27 16c-25 12 -45 19 -61 19c-22 0 -34 -13 -37 -38l-3 -11 c-5 -25 -8 -46 -8 -58c-1 -4 -2 -13 -5 -27c-2 -12 -4 -90 -7 -110l-10 -2c-8 72 -8 118 -23 200c-6 30 -10 53 -11 68s-2 26 -2 32v12c0 33 -27 61 -62 61c-12 0 -23 -3 -33 -10c-12 9 -25 14 -39 14c-35 0 -62 -28 -62 -61v-60c0 -13 2 -34 6 -65l8 -72c2 -21 5 -41 8 -61 c5 -39 12 -78 21 -125c8 -45 13 -68 21 -103c9 -37 17 -57 23 -73c3 -8 6 -17 9 -27c5 -14 11 -25 16 -34l6 -9c11 -19 32 -29 53 -29c4 0 9 0 13 1c7 -7 15 -12 26 -15c9 -3 18 -4 26 -4c6 0 11 0 16 2c11 4 23 11 29 18s13 16 14 20c1 1 2 3 3 5c11 23 24 60 35 127 c2 -13 4 -22 5 -27l5 -20l7 -27l3 -17c2 -11 4 -21 7 -29l6 -16c12 -28 29 -41 45 -41c15 0 33 12 46 24c12 11 26 30 30 36c2 3 4 5 5 6c7 21 12 43 17 67c11 49 20 141 25 192c3 25 6 48 10 69c4 22 7 41 10 56l9 51c3 17 7 33 10 48c5 19 8 35 11 48c1 10 3 18 5 24 c3 11 6 21 7 29c0 1 0 3 1 5c3 6 5 11 6 16l2 6c2 6 3 13 3 19c0 32 -24 62 -61 62c-26 0 -50 -16 -59 -42l-2 -6c-1 -4 -3 -9 -5 -15c-3 -10 -6 -19 -7 -28c-1 -2 -2 -5 -3 -10c-3 -11 -6 -24 -9 -39c-1 -11 -4 -24 -8 -39c-5 -17 -9 -36 -12 -56c-8 -48 -13 -94 -13 -159z "></glyph><glyph glyph-name="Wgrave" unicode="Ẁ" d="M197 791l-3 7c-3 8 -4 15 -4 23s1 17 5 25c7 15 19 26 34 32c7 2 15 4 22 4c8 0 17 -2 25 -6c16 -7 27 -18 33 -34l3 -7c9 -6 18 -12 28 -18c11 -8 21 -16 30 -24l10 -8c13 -12 20 -27 20 -47c0 -15 -3 -28 -12 -39c-13 -10 -27 -14 -42 -14c-21 0 -42 8 -63 20 c-3 3 -8 6 -12 9l-27 18c-18 12 -31 25 -39 39c-3 7 -6 13 -8 20zM562 705c37 0 61 -30 61 -62c0 -6 -1 -13 -3 -19l-2 -6c-1 -5 -3 -10 -6 -16c-1 -2 -1 -4 -1 -5c-1 -8 -5 -28 -10 -47c-3 -15 -7 -31 -10 -48l-9 -51c-3 -15 -6 -34 -10 -56c-4 -21 -7 -44 -10 -69 c-5 -51 -14 -143 -25 -192c-5 -24 -10 -46 -17 -67c-7 -34 -29 -62 -62 -62c-32 0 -61 30 -70 53c-3 8 -5 18 -7 29l-3 17l-7 27l-5 20c-1 5 -3 14 -5 27c-3 -18 -6 -34 -9 -48c-3 -15 -4 -28 -6 -36c-3 -9 -5 -21 -9 -35c-1 -7 -3 -15 -6 -24c-1 0 -2 -2 -3 -4 c-5 -5 -19 -18 -30 -26c-12 -8 -28 -17 -41 -20c-12 -4 -26 2 -34 15c-19 2 -33 11 -43 27l-5 8c-1 3 -4 7 -7 11c-1 1 -2 4 -4 8l-6 8c-6 10 -11 20 -14 28c-1 3 -3 8 -7 15c-7 12 -13 24 -18 37l-11 28c-11 24 -17 45 -25 91c-5 22 -8 41 -10 57c-5 31 -13 81 -16 109 l-4 48c-2 20 -3 38 -3 56c0 28 1 50 1 70v56c0 30 26 56 56 56c12 0 21 -3 31 -11c10 8 21 11 33 11c30 0 55 -26 55 -56v-67c0 -32 8 -94 14 -122c3 -14 7 -36 14 -65c2 -8 3 -17 5 -26h7c3 21 6 40 8 62c1 18 2 33 3 39c3 14 4 23 5 27c0 12 3 33 8 58l3 11 c4 26 27 39 48 39c9 0 18 -3 25 -8c8 0 24 -11 32 -22c18 -10 25 -31 28 -45c7 -37 11 -121 15 -198h8c6 41 13 138 12 133l9 51c3 20 7 39 12 56l14 62c2 6 4 11 5 15l2 6c9 26 33 42 59 42z"></glyph><glyph glyph-name="X" unicode="X" d="M248 37v44l16 27c20 -44 60 -108 102 -108c12 0 23 4 32 14c36 -2 51 28 51 57c0 11 -2 19 -7 35c-30 70 -43 116 -57 164c-7 27 -16 56 -27 89c52 109 68 148 84 174c21 36 22 47 33 74c9 22 15 40 15 50c0 34 -28 62 -62 62c-26 0 -46 -15 -59 -43 c-3 -6 -6 -16 -11 -30c-7 -23 -7 -26 -22 -50c-10 -17 -18 -33 -25 -48l-8 -18c-16 51 -25 74 -41 118c-4 11 -7 19 -8 25v11c1 17 -5 32 -16 45c-13 13 -28 19 -44 19c-13 0 -25 -5 -36 -12c-12 14 -27 21 -44 22c-38 0 -64 -27 -64 -78c0 -27 7 -45 21 -76 c18 -43 31 -85 45 -141c5 -18 24 -93 64 -192l4 -10c-52 -117 -59 -143 -59 -224c0 -33 29 -62 62 -62c34 0 61 29 61 62z"></glyph><glyph glyph-name="Y" unicode="Y" d="M113 756c-35 0 -64 -30 -63 -64c3 -53 4 -49 21 -104c15 -45 27 -97 34 -125c13 -56 56 -159 90 -210c4 -4 42 -123 42 -126c2 -19 9 -44 20 -57v-13c0 -33 28 -61 61 -61s62 28 62 61v388c0 7 -2 15 -5 22l1 1c0 -1 80 170 80 211c0 34 -26 61 -61 61 c-24 0 -48 -14 -58 -38c-19 -38 -54 -129 -58 -146c0 -5 -32 83 -34 137c-1 30 -31 53 -60 53c-10 0 -25 -6 -30 -8c-12 12 -27 18 -42 18z"></glyph><glyph glyph-name="Yacute" unicode="Ý" d="M209 687c-23 0 -40 10 -51 28c-8 10 -11 21 -11 33c0 4 0 8 1 12l2 11c2 12 9 29 20 52c9 20 19 37 28 51l12 18c12 17 29 27 53 27c11 0 22 -3 33 -10c17 -12 27 -29 27 -53c0 -11 -3 -22 -10 -32l-12 -18c-7 -10 -14 -22 -21 -37l-10 -22l-1 -9c-3 -17 -12 -30 -26 -39 c-11 -8 -22 -12 -34 -12zM123 721c17 0 31 -6 44 -18c12 -12 18 -26 18 -43v-11c0 -8 0 -16 -1 -25c0 -7 1 -19 3 -37l2 -18c3 8 7 16 10 23c13 31 28 54 45 69l15 15c12 11 27 17 43 17c18 0 32 -7 44 -19l6 -8c7 2 13 3 19 3c11 0 21 -3 30 -8c15 -9 24 -21 28 -38 c1 -6 2 -11 2 -16c0 -11 -3 -21 -8 -30l-8 -14l-13 -22l-13 -26c-5 -9 -9 -19 -14 -32l-13 -39c-5 -13 -8 -25 -11 -36c-4 -16 -8 -29 -11 -38c-2 -5 -6 -15 -11 -32c-5 -20 -11 -41 -18 -63c-7 -20 -14 -46 -21 -79c-9 -36 -17 -64 -24 -83l-16 -41c-1 -2 -2 -4 -2 -6 l-1 -8c-1 -17 -7 -31 -20 -42c-11 -11 -24 -16 -39 -16c-27 0 -46 11 -57 34c-7 -2 -14 -4 -21 -4c-10 0 -21 3 -31 9c-18 11 -29 29 -29 53c0 11 3 22 9 32l4 7c2 3 4 6 5 10c3 5 7 16 12 33c6 15 13 42 20 81c7 38 16 76 27 115c-11 3 -20 9 -27 18c-8 9 -13 19 -15 30 l-1 6c-1 6 -2 16 -3 31c-1 11 -3 26 -6 45l-10 72c-3 29 -5 49 -4 60c1 6 1 12 1 17v11c0 17 6 31 18 43s26 18 43 18z"></glyph><glyph glyph-name="Ycircumflex" unicode="Ŷ" d="M403 689c14 -12 21 -28 21 -48c0 -15 -5 -28 -15 -39l-6 -7c-2 -2 -4 -4 -5 -7c-3 -4 -6 -10 -10 -18l-11 -21c-1 -3 -4 -9 -8 -18c-5 -11 -11 -25 -20 -42l-30 -59l-30 -54c-7 -12 -12 -22 -17 -29l-1 -3c-1 -2 -1 -4 -1 -7v-67c0 -25 -2 -68 -7 -127 c-1 -25 -3 -43 -4 -54c-1 -12 -3 -25 -6 -39c-3 -15 -7 -27 -12 -37l-5 -3l-11 -7c-6 -4 -12 -7 -17 -10l-20 -9c-8 -3 -15 -6 -22 -7s-13 -2 -20 -1s-12 2 -17 5s-8 8 -11 15c-3 8 -5 17 -5 28l-1 24v26l-2 34c-1 14 -2 36 -3 65l-3 103l-1 74c0 9 0 18 -1 26 c-1 14 1 29 6 46c1 7 3 14 6 20l-1 4l-13 50c-5 21 -12 43 -20 65l-21 60l-6 21c-2 6 -3 12 -3 19c0 9 2 18 8 28c8 15 20 25 36 30c6 1 12 2 18 2c7 0 14 -1 20 -3c-6 3 -12 7 -17 12c-12 12 -18 26 -18 43v12c0 11 1 22 2 33c1 13 6 31 13 52s14 37 21 50 c6 12 12 21 17 28c7 11 18 19 33 26c9 4 18 6 27 6c5 0 10 -1 15 -2c13 -3 24 -8 34 -17s17 -18 22 -29l14 -38c7 -17 12 -32 16 -44c3 -11 7 -21 12 -31c3 -7 5 -11 7 -14l8 -9c9 -11 13 -24 13 -38c0 -17 -6 -32 -17 -43c8 -3 15 -6 22 -11c18 1 34 -4 47 -15zM271 697 l2 1c-13 4 -23 11 -31 21l-8 9c-6 7 -12 16 -17 27c-4 -12 -11 -22 -22 -30c-11 -9 -24 -13 -37 -13c-7 0 -14 1 -20 3c1 0 2 -1 3 -1c15 -8 24 -20 29 -37l7 -20c3 -13 9 -31 18 -54l4 -10c13 25 23 44 32 58c13 21 27 36 40 46z"></glyph><glyph glyph-name="Ydieresis" unicode="Ÿ" d="M112 823c19 0 35 -8 47 -23c12 -3 23 -8 32 -17s14 -19 16 -31c1 -4 1 -9 1 -13c0 -12 -3 -23 -10 -33c-9 -15 -22 -24 -39 -27l-7 -1l-12 -3c-5 -1 -9 -2 -14 -2c-11 0 -21 3 -31 9c-15 7 -26 17 -33 28c-8 14 -12 29 -12 44v7c0 17 6 31 18 44c12 12 27 18 44 18z M393 770c4 -8 6 -16 6 -24c0 -10 -3 -20 -8 -30c-10 -19 -23 -31 -38 -36l-6 -3c-3 -1 -8 -2 -15 -3h-6c-5 0 -10 0 -14 2c-7 1 -14 6 -21 13c-8 7 -15 16 -20 28c-9 9 -15 21 -17 34c-1 4 -1 7 -1 11c0 9 2 18 6 26c7 15 19 26 36 31c6 2 13 3 20 3c9 0 18 -2 26 -6l9 -4 c7 -3 13 -7 19 -12c13 -9 21 -19 24 -30zM374 643c4 1 9 1 13 1c12 0 23 -3 34 -10c14 -9 23 -22 26 -39l2 -7l4 -22c1 -10 2 -20 2 -31v-19c0 -8 -1 -18 -3 -31c-1 -9 -2 -17 -2 -23c-1 -9 -4 -23 -9 -40l-10 -41c-4 -16 -9 -33 -15 -50c-6 -18 -13 -37 -22 -56 c-9 -20 -19 -39 -31 -57c-11 -17 -22 -32 -32 -44l-28 -31c-10 -11 -21 -22 -34 -34l-34 -33c-12 -13 -23 -24 -32 -33l-20 -21c-4 -4 -10 -6 -18 -6c-17 0 -33 5 -50 12c-14 5 -25 14 -33 25c-5 7 -8 15 -8 22c0 5 1 9 3 14l12 27l15 27l15 30c5 9 9 18 12 25l15 33 c4 9 8 21 13 36c7 19 15 40 25 63l5 10c-7 3 -15 8 -24 16s-14 16 -17 23l-9 23l-16 37c-7 16 -14 32 -22 48c-9 18 -16 31 -19 39c-2 5 -4 9 -7 13l-6 9c-6 10 -9 20 -9 31c0 24 11 42 29 54c10 6 20 9 31 9c25 0 43 -11 54 -29l6 -9c5 -8 9 -17 14 -26c3 -7 8 -18 17 -35 l16 -35c7 11 15 21 22 30l25 33c8 9 14 18 19 25l10 15c1 2 3 5 6 8s11 8 26 15c14 7 32 11 53 13z"></glyph><glyph glyph-name="Ygrave" unicode="Ỳ" d="M274 762c36 0 62 30 62 62c0 24 -12 36 -26 49l-17 16c-7 7 -37 19 -38 19c-14 5 -26 7 -37 7c-20 0 -34 -8 -47 -22c-11 -11 -16 -23 -16 -35c0 -20 14 -41 41 -57c5 -3 6 -3 29 -17l14 -11c11 -7 22 -11 35 -11zM113 756c-35 0 -64 -30 -63 -64c3 -53 4 -49 21 -104 c15 -45 27 -97 34 -125c13 -56 56 -159 90 -210c4 -4 42 -123 42 -126c2 -19 9 -44 20 -57v-13c0 -33 28 -61 61 -61s62 28 62 61v388c0 7 -2 15 -5 22l1 1c0 -1 80 170 80 211c0 34 -26 61 -61 61c-24 0 -48 -14 -58 -38c-19 -38 -54 -129 -58 -146c0 -5 -32 83 -34 137 c-1 30 -31 53 -60 53c-10 0 -25 -6 -30 -8c-12 12 -27 18 -42 18z"></glyph><glyph glyph-name="Z" unicode="Z" d="M112 574c16 0 20 1 57 25c6 3 16 8 30 14c4 1 6 2 7 3c-3 -45 -9 -114 -14 -135c-5 -19 -10 -46 -15 -82c-11 -67 -33 -174 -40 -208c-10 -38 -14 -56 -16 -70c-2 -11 -4 -21 -7 -32c-3 -14 -5 -24 -6 -31c-3 -10 -5 -20 -5 -29c0 -42 35 -69 80 -64h11h106h67 c33 0 62 28 62 62s-29 61 -62 61h-28v87c0 9 2 28 5 55c5 56 13 83 18 103c5 21 17 67 23 101c7 37 15 57 15 111c0 21 7 71 7 115c0 22 -2 42 -7 56c-13 38 -53 62 -107 62c-21 0 -38 -4 -52 -18c-13 -2 -63 -22 -91 -35c-64 -27 -100 -48 -100 -90c0 -33 27 -61 62 -61z "></glyph><glyph glyph-name="Zacute" unicode="Ź" d="M90 635c-1 4 -1 8 -1 12c0 9 2 18 7 26c6 12 15 21 27 27c3 5 6 9 10 12c-14 -1 -27 2 -40 9s-22 18 -27 31l-2 6c-3 7 -4 15 -5 22v7c0 4 0 7 1 10c1 5 2 10 5 15l5 12c1 2 4 5 7 8s4 5 4 6c7 9 16 21 25 35c13 19 23 32 32 40l8 8c12 11 27 17 44 17s32 -6 44 -18 c11 -12 17 -27 17 -43c0 -18 -7 -32 -19 -44l-9 -9l-15 -20c-8 -12 -15 -23 -22 -32c-1 -17 -7 -31 -20 -43h27c15 -1 32 -3 50 -8c16 -4 29 -8 40 -12c12 -5 22 -10 31 -15c7 -4 14 -8 20 -12c21 -14 33 -37 36 -70c1 -15 2 -35 1 -62c-1 -28 -5 -60 -12 -96l-16 -75 l-24 -102c-13 -52 -23 -90 -30 -114c-7 -25 -16 -49 -27 -70c-9 -19 -16 -33 -21 -41l-1 -3c11 -2 21 -7 30 -14s15 -17 18 -28c2 -6 3 -13 3 -19c0 -9 -2 -18 -6 -27c-8 -15 -20 -26 -36 -31l-31 -11c-14 -6 -30 -9 -48 -9h-41c-41 -1 -66 17 -76 52c-2 8 -3 16 -3 25 c0 5 1 10 1 15c1 11 4 25 9 44l8 39c3 12 9 33 19 64c9 25 17 58 26 99l33 156c12 59 19 97 21 112c2 14 3 32 3 55v15l-9 -1c-4 -1 -7 -1 -11 -1c-12 0 -24 4 -35 12c-14 9 -22 22 -25 39z"></glyph><glyph glyph-name="Zcaron" unicode="Ž" d="M191 892c2 16 10 29 22 40c13 11 27 16 43 15c17 -1 31 -8 42 -21c12 -13 17 -27 16 -44l-1 -17l-2 -29l-6 -30c-3 -17 -8 -33 -14 -46c-12 -29 -31 -46 -57 -51c12 -2 23 -6 33 -11c11 6 21 9 32 9c8 0 15 -1 23 -4l10 -4c7 -3 15 -7 23 -10c12 -5 24 -14 34 -26 c11 -13 16 -28 16 -46c0 -9 0 -18 -2 -25c0 -6 -2 -13 -4 -20c-1 -4 -2 -10 -4 -17c-2 -15 -9 -32 -20 -50l-21 -35c-7 -11 -15 -22 -23 -34l-18 -30c-6 -13 -12 -25 -17 -36c-4 -9 -8 -17 -10 -23l-14 -37c-4 -13 -9 -29 -13 -47c-4 -20 -9 -43 -14 -70 c-4 -29 -8 -54 -12 -75c-4 -22 -9 -39 -13 -50c10 1 20 1 30 1c19 1 31 1 37 2c7 2 15 4 23 5l12 2c4 1 8 1 11 1c13 0 24 -4 35 -11c17 -12 26 -28 26 -51c0 -12 -4 -24 -12 -35c-10 -14 -23 -22 -39 -25l-12 -2l-19 -4c-9 -2 -28 -4 -57 -5l-67 -1c-23 0 -44 2 -62 7 c-34 8 -56 25 -67 51c-5 14 -8 31 -8 51c0 11 0 19 -1 26c0 13 1 30 5 50c4 14 6 27 8 39c3 13 10 39 20 77l32 127c12 51 25 93 37 128c9 25 16 49 20 74l-26 -4c-3 -1 -7 -1 -10 -1c-12 0 -24 4 -35 12c-16 12 -26 28 -26 50c0 12 4 24 12 35c10 14 24 22 40 25l13 2l23 4 c6 1 11 2 17 4h1c-21 3 -36 14 -46 33l-5 9l-12 25c-2 5 -4 10 -7 15c-8 13 -14 25 -19 36l3 7l6 18c3 8 6 16 10 23s8 14 14 21s12 13 18 16c4 2 8 3 13 3c3 0 6 0 9 -1c9 -2 18 -7 26 -15z"></glyph><glyph glyph-name="Zdotaccent" unicode="Ż" d="M70 599c0 12 4 24 13 35c10 13 23 21 40 24h5l17 6c15 6 26 10 32 12l11 3c-5 -1 -9 -1 -14 -1c-15 -1 -32 2 -49 9l-12 5c-15 6 -26 17 -33 33c-4 8 -6 17 -6 25s2 15 5 22c3 9 9 17 17 24c2 7 5 13 8 18c12 18 28 29 54 29c11 0 21 -3 30 -9l3 -2c16 -3 30 -8 41 -16 c19 -13 30 -31 33 -54c3 -30 -9 -53 -38 -70c4 1 9 1 14 1c17 0 31 -5 44 -15c8 5 17 9 27 10c17 1 33 -4 46 -15s20 -25 21 -42v-7l1 -18v-43c1 -15 0 -29 -2 -44c-1 -15 -4 -30 -8 -43c-2 -8 -3 -16 -4 -24c-2 -14 -4 -25 -7 -34c-2 -5 -5 -15 -8 -28 c-4 -15 -9 -30 -14 -46s-12 -34 -20 -54c-7 -17 -11 -30 -13 -39l-15 -47c-7 -21 -14 -40 -21 -59l-17 -41c6 1 10 2 13 3c9 3 17 5 24 6l6 1c4 1 7 1 11 1c12 0 24 -4 35 -12c17 -12 26 -28 26 -51c0 -12 -4 -24 -12 -35c-10 -14 -23 -22 -40 -25l-6 -1c-2 0 -5 -1 -10 -2 c-9 -3 -21 -5 -36 -8s-31 -4 -47 -4c-13 0 -27 0 -40 1c-15 0 -27 1 -36 3c-12 1 -23 4 -34 9c-21 9 -37 24 -46 44c-6 13 -9 27 -9 41c0 7 0 14 1 19c0 7 2 17 5 30l8 35l10 33l19 72c9 32 17 65 26 98l24 86c7 25 15 51 24 76l6 20c-11 -4 -19 -6 -26 -7l-7 -1 c-4 -1 -7 -1 -11 -1c-12 0 -24 4 -34 13c-17 12 -25 28 -25 51z"></glyph><glyph glyph-name="a" unicode="a" d="M80 340c-19 11 -30 29 -30 53c0 36 32 71 77 82c9 10 19 17 31 20c56 15 54 17 107 17c117 0 148 -120 151 -281v-168c0 -33 -27 -61 -61 -61c-23 0 -40 10 -52 29c-31 -19 -67 -31 -102 -31c-74 0 -134 33 -134 102c0 110 90 239 186 244c-5 9 -6 11 -11 17 c-55 0 -56 0 -81 -6c-12 -16 -29 -25 -50 -25c-11 0 -21 2 -31 8zM260 223l-5 -2c-4 -3 -10 -8 -18 -16c-11 -13 -20 -25 -27 -34c-6 -10 -11 -19 -14 -26c-2 -5 -10 -32 -10 -38c-1 -2 -1 -3 -1 -5c2 -1 5 -1 8 -1c7 0 14 1 21 3c8 3 14 6 18 10l27 14l16 10l-2 85h-13z "></glyph><glyph glyph-name="aacute" unicode="á" d="M454 80c6 -52 -36 -81 -76 -81c-23 0 -38 9 -49 25l-36 -12c-3 0 -6 0 -9 -1c-11 -3 -32 -3 -63 -6c-15 0 -29 -1 -40 -1c-52 0 -84 18 -100 54c-6 14 -10 28 -12 41c0 11 0 23 2 34c1 10 7 23 15 38c6 15 14 31 24 45c8 13 17 31 30 44c30 32 70 54 105 64v1 c-19 74 -37 95 -78 98c-10 -1 -16 -3 -20 -4c-11 -7 -23 -12 -35 -12c-19 0 -38 9 -51 26c-7 10 -11 24 -11 35c0 19 8 38 25 51l7 4c13 10 28 15 47 17c5 1 11 1 18 2c-1 2 -3 3 -4 4c-11 12 -17 27 -17 44s6 31 18 43l16 15c10 10 21 21 34 32c16 15 30 25 42 31l10 5 c9 5 19 7 28 7c7 0 13 -1 19 -3c17 -5 29 -15 36 -30c5 -9 7 -18 7 -27c0 -6 -1 -13 -3 -19c-5 -17 -15 -29 -30 -37l-10 -5c-3 -2 -9 -6 -16 -13l-32 -30l-13 -13c48 -6 84 -34 129 -95c28 -36 38 -74 45 -126c12 -46 34 -149 45 -214l2 -12c2 -6 0 -13 1 -19zM213 117 c36 0 67 10 76 12c-10 28 -17 53 -23 82c-48 -18 -76 -52 -93 -89c13 -3 27 -5 40 -5z"></glyph><glyph glyph-name="abreve" unicode="ă" d="M259 607c-34 19 -54 72 -66 135c17 37 40 86 72 86c15 0 26 -9 33 -17c16 34 27 53 64 53c35 0 61 -26 61 -62c0 -28 -55 -134 -55 -140c2 -6 2 -12 2 -18c0 -38 -25 -60 -57 -60c-19 0 -40 7 -54 23zM497 38c2 -17 -2 -32 -12 -46c-13 -15 -28 -24 -49 -24 c-14 0 -26 4 -37 12c-14 11 -22 24 -24 41l-1 7l-1 7c-21 -25 -60 -42 -102 -42c-34 0 -71 12 -100 39c-19 18 -34 38 -44 62c-7 17 -14 37 -18 58c-6 27 -9 45 -8 54c-1 3 -1 7 -1 10c0 8 2 16 3 24c4 16 13 29 24 37c12 8 24 14 36 16c27 12 70 21 131 25l4 1 c-4 15 -9 27 -13 35c-6 14 -17 34 -25 42c-6 5 -20 11 -39 17c-9 3 -22 4 -33 4c-7 0 -14 0 -18 -2c-2 -3 -5 -6 -9 -9l-5 -6c-8 -9 -18 -14 -30 -17c-5 -1 -10 -2 -14 -2c-17 0 -31 7 -43 18c-9 8 -14 18 -17 30c-1 5 -2 10 -2 15c0 16 6 29 18 41l5 7l13 13 c12 11 27 21 47 27c38 14 90 24 126 24c90 0 158 -57 176 -148c9 -46 15 -77 20 -95c1 -3 2 -5 2 -9c17 -73 35 -209 36 -221l3 -31v-8zM281 112c19 0 34 19 34 57c0 9 -1 19 -2 29c-23 5 -41 8 -54 8c-24 0 -35 -8 -31 -24c3 -15 7 -29 12 -39c3 -8 9 -15 16 -22 c9 -6 17 -9 25 -9z"></glyph><glyph glyph-name="acircumflex" unicode="â" d="M117 613c-13 12 -19 26 -19 43v13c0 11 1 25 3 40c2 17 6 34 11 53c5 17 11 33 16 46c6 14 11 25 15 33l6 12c11 24 31 38 59 43c5 1 9 1 13 1c8 0 16 -1 23 -3c10 -4 18 -9 24 -14c5 -5 10 -12 15 -21c4 -9 7 -15 8 -19l3 -14l1 -1c5 -19 8 -33 10 -44c1 -6 3 -12 5 -17 l9 -19l3 -6l5 -6c11 -13 15 -28 14 -45c-2 -17 -10 -31 -23 -41c-13 -11 -28 -15 -45 -13c-17 1 -31 9 -42 22l-5 6l-5 7v-13c0 -17 -6 -31 -18 -43c-12 -13 -26 -19 -43 -19s-31 6 -43 19zM462 246c0 -15 1 -30 1 -42c0 -13 -1 -24 -1 -34c-3 -29 -9 -170 -62 -170 c-18 0 -50 0 -72 19l-13 19c0 1 0 2 -1 5l1 -5c-2 -3 -6 -6 -8 -8c-11 -11 -25 -19 -42 -25c-5 -1 -10 -3 -15 -4l-21 -3c-41 -4 -80 15 -104 48c-9 13 -26 53 -43 94c-7 22 -8 27 -10 45c-1 5 -1 9 -1 13c0 13 3 24 9 36l9 28c0 1 0 5 1 11c3 11 5 14 10 24s13 18 26 27 c10 8 40 22 68 31c24 8 42 10 55 11c-9 26 -17 44 -26 55c-4 5 -8 9 -11 12h-2c-9 0 -18 -1 -26 -2c-6 -1 -12 -3 -17 -5c-15 -7 -28 -12 -39 -14l-6 -1c-17 -2 -32 2 -46 13c-16 11 -26 27 -26 48c1 13 5 25 13 37c11 14 24 22 41 24l4 1l7 3c15 7 30 12 47 15 c15 3 31 4 48 4c21 0 40 -3 55 -10h9c10 0 21 -1 34 -4c18 -4 35 -12 51 -25c15 -12 28 -29 41 -50c9 -17 20 -42 31 -73s19 -56 23 -74s7 -43 8 -74zM248 113c16 9 20 27 18 42c-4 35 3 24 -12 70c-3 9 -10 12 -18 12c-10 0 -22 -5 -29 -9c-3 -13 -7 -24 -11 -32 c4 -39 14 -53 52 -83z"></glyph><glyph glyph-name="adieresis" unicode="ä" d="M132 655c-15 9 -24 21 -28 37c-1 5 -2 11 -2 16c0 11 3 21 8 32c1 16 8 29 20 41c11 12 25 18 42 18s31 -6 43 -18s18 -27 18 -44v-7c0 -16 -4 -31 -13 -46l-4 -7c-12 -18 -28 -30 -54 -30c-11 0 -21 3 -30 8zM295 632c-14 13 -20 28 -20 47c0 16 6 29 16 40 c13 16 30 22 51 20c7 2 13 3 20 3c11 0 21 -3 31 -9c19 -10 30 -27 30 -53c0 -10 -3 -21 -9 -31l-5 -8c-12 -20 -33 -31 -64 -31c-18 0 -32 5 -43 15zM477 237c1 -15 1 -31 1 -46c0 -19 -2 -37 -6 -53c-5 -19 -14 -39 -28 -58c-11 -15 -19 -25 -25 -32l-22 -21 c-9 -9 -17 -16 -24 -22l-9 -7c-12 -10 -25 -15 -40 -15c-17 0 -30 6 -41 16c-5 -1 -10 -1 -15 -2c-45 -8 -78 -9 -99 -9c-31 0 -56 9 -76 26c-16 13 -26 27 -32 40c-4 9 -8 22 -9 40c-2 15 -2 30 -2 46c1 17 5 38 13 60c6 20 13 36 19 49c7 13 18 28 32 44 c17 19 36 34 58 46c15 9 30 17 46 24c10 4 23 9 38 14c-2 4 -4 9 -7 14c-9 18 -18 32 -28 42l-4 4h-9c-7 0 -16 -1 -27 -4l-24 -7c-6 -2 -11 -3 -17 -3c-10 0 -20 3 -29 9c-15 8 -25 20 -30 36c-2 6 -3 11 -3 17c0 10 3 20 9 30c8 15 20 24 37 29l23 7c21 6 41 9 59 9h10 c1 3 3 5 4 6c12 14 28 21 47 21c15 0 28 -6 40 -16l10 -8l24 -23c9 -9 20 -22 35 -39c19 -20 33 -41 43 -62c8 -17 17 -37 26 -59c10 -25 18 -50 23 -77c5 -26 8 -48 9 -66zM172 126l32 8c14 4 35 12 63 23c11 31 16 63 16 97v2c-6 -2 -11 -3 -15 -5l-38 -19 c-7 -5 -16 -11 -23 -19c-8 -9 -13 -17 -16 -23s-8 -15 -12 -28c-4 -12 -6 -22 -6 -29z"></glyph><glyph glyph-name="agrave" unicode="à" d="M130 725c-17 11 -27 29 -27 51c0 13 4 24 12 35c11 16 29 26 51 26c12 0 23 -4 34 -11l13 -9c11 -7 19 -14 25 -19c7 -5 19 -17 36 -34c14 -14 23 -23 27 -26l8 -7c14 -12 22 -28 22 -48c0 -14 -5 -27 -14 -38c-13 -15 -29 -22 -48 -22c-15 0 -28 5 -39 14l-8 7 c-7 5 -19 17 -36 34c-13 14 -22 22 -25 25l-18 12zM464 80c6 -52 -36 -81 -76 -81c-16 0 -28 4 -38 13l-47 -15c-15 -6 -29 -9 -41 -11c-12 -3 -22 -5 -33 -5c-5 0 -10 0 -15 1l-32 3l-14 3c-13 2 -25 7 -35 17c-5 8 -10 16 -13 25c-2 4 -3 8 -4 13c-6 1 -12 5 -18 8 c-13 9 -23 18 -30 29c-4 7 -7 12 -9 20c-3 6 -3 12 -4 19c0 5 -1 10 -1 15s1 10 1 14c1 8 3 14 4 18c3 4 6 10 10 17l11 14c13 21 29 44 45 66c19 24 38 44 57 60c16 13 35 27 60 43c-14 32 -29 32 -60 34c-10 -1 -16 -3 -20 -4c-10 -7 -21 -12 -32 -12c-22 0 -56 17 -69 35 c-7 9 -11 22 -11 32c0 22 17 55 35 68l7 4c13 10 28 15 47 17c8 1 18 2 31 5c19 3 32 3 39 2c65 4 107 -21 162 -96c28 -36 38 -74 45 -126c12 -46 34 -149 45 -214l2 -12c2 -6 0 -13 1 -19zM200 106c18 7 60 18 97 28c-11 33 -19 63 -27 103l-7 -6c-13 -12 -27 -27 -40 -43 c-22 -29 -27 -48 -27 -61c0 -10 3 -16 4 -21z"></glyph><glyph glyph-name="amacron" unicode="ā" d="M176 603c-41 0 -68 24 -68 61c0 29 18 51 44 56l31 6l37 4c17 3 32 6 44 9l31 8c14 5 27 6 40 5l6 -1c17 -1 30 -9 41 -22c9 -12 14 -25 14 -39c0 -19 -8 -35 -22 -47c-13 -11 -29 -15 -46 -14l-31 -9c-17 -5 -37 -9 -60 -12l-45 -5h-16zM462 246c0 -15 1 -30 1 -42 c0 -13 -1 -24 -1 -34c-3 -29 -9 -170 -62 -170c-18 0 -50 0 -72 19l-2 3c-22 -18 -55 -29 -89 -29s-71 12 -100 39c-19 18 -34 38 -44 62c-6 14 -13 45 -13 67c0 5 0 9 1 13c18 70 62 118 179 144h1c-3 16 -7 32 -12 47c-9 27 -17 45 -26 56c-4 5 -8 9 -11 12h-2 c-9 0 -18 -1 -26 -2c-6 -1 -12 -3 -17 -5c-15 -7 -28 -12 -39 -14l-6 -1c-17 -2 -32 2 -46 13c-16 11 -26 27 -26 48c1 13 5 25 13 37c11 14 24 22 41 24l4 1l7 3c15 7 30 12 47 15c15 3 31 4 48 4c21 0 40 -3 55 -10h9c10 0 21 -1 34 -4c18 -4 35 -12 51 -25 c15 -12 28 -29 41 -50c9 -17 20 -42 31 -73s19 -56 23 -74s7 -43 8 -74zM222 100c22 -4 58 14 59 66l-8 30c-45 -15 -73 -34 -67 -53c3 -8 9 -36 16 -43z"></glyph><glyph glyph-name="aogonek" unicode="ą" d="M447 25c7 -10 11 -21 11 -34c0 -20 -10 -37 -26 -49c-13 -9 -28 -13 -44 -11l-5 -6c-8 -9 -14 -18 -18 -27c-3 -6 -5 -11 -6 -16l6 -2l12 -2c16 -4 29 -13 38 -28c7 -11 10 -22 10 -34c0 -21 -10 -39 -29 -50c-11 -6 -21 -10 -32 -10c-5 0 -9 1 -14 2l-13 2l-26 6 c-19 4 -34 11 -46 20c-21 16 -32 39 -32 69c0 13 1 28 4 43c3 17 8 34 17 52c8 17 19 34 32 51c6 8 12 14 18 20c-17 -4 -34 -6 -52 -6c-17 0 -34 5 -48 7c-17 2 -35 7 -50 13c-16 4 -30 8 -38 14c-10 6 -19 14 -27 21c-8 10 -16 23 -22 37c-5 12 -8 23 -8 35 c0 17 6 34 17 52c7 13 24 30 45 52c23 21 37 37 47 43l6 6l65 36c-13 91 -43 76 -83 88c-10 1 -16 0 -20 0c-10 -4 -21 -6 -31 -6c-21 3 -40 16 -50 38c-3 7 -5 16 -5 25c0 23 13 45 37 56l7 2c11 5 23 8 37 8c4 0 8 -1 13 -1c8 -1 18 -2 31 -2c19 -1 32 -3 39 -6 c45 -16 172 -48 186 -211c9 -46 20 -146 31 -211l2 -12c1 -2 1 -4 1 -6c3 -17 16 -61 13 -68zM231 123c13 0 26 2 40 5c-8 28 -13 53 -18 82c-15 -10 -56 -37 -77 -78c17 -5 36 -9 55 -9z"></glyph><glyph glyph-name="aring" unicode="å" d="M134 580c-20 17 -29 38 -28 64c1 5 1 10 1 16c1 6 1 12 1 19c1 11 3 23 7 35l3 12c3 10 8 18 16 26c-2 6 -2 11 -2 17c0 8 1 16 5 24c6 14 15 24 28 31l13 7c17 8 36 12 57 12s41 -4 60 -12c20 -10 35 -20 46 -32c9 -12 17 -27 22 -44c3 -14 5 -29 5 -43v-30 c-1 -18 -4 -33 -10 -45c-3 -8 -8 -17 -15 -27c-9 -14 -18 -25 -27 -33c-17 -14 -37 -21 -62 -21h-42c-8 0 -17 0 -28 2c-19 2 -36 10 -50 22zM239 746c-13 0 -34 -27 -34 -56c0 -8 1 -16 5 -24c3 -11 22 -17 25 -17h6l13 7c8 11 12 26 12 41s-4 31 -12 41c-3 1 -13 8 -15 8z M265 512c117 0 148 -120 151 -281v-168c0 -33 -27 -61 -61 -61c-17 0 -31 5 -42 16c-24 -9 -52 -14 -80 -14c-44 0 -89 11 -128 34c-32 18 -45 52 -45 90c0 32 10 67 27 97c14 25 70 73 161 101l-3 19l-3 18c-55 0 -56 0 -81 -6c-12 -16 -29 -25 -50 -25c-11 0 -21 2 -31 8 c-19 11 -30 29 -30 53c0 36 32 71 77 82c9 10 19 17 31 20c56 15 54 17 107 17zM217 127c11 0 24 3 43 7c6 1 11 3 15 4c0 8 -1 34 -1 60l-31 -6l-45 -23c-5 -2 -11 -5 -17 -11c-6 -5 -10 -4 -14 -11c-1 -2 -3 -5 -3 -7l5 -2c5 -3 33 -9 38 -10c3 0 6 -1 10 -1z"></glyph><glyph glyph-name="atilde" unicode="ã" d="M125 614c-17 0 -31 6 -43 19c-12 12 -18 26 -18 43v51c0 25 6 45 18 62c9 11 22 20 37 25c9 3 19 4 27 4c5 0 10 0 14 -1c9 -2 18 -5 27 -9c8 -5 14 -8 17 -11s9 -8 17 -16l21 -19v19c0 17 6 32 18 44s27 18 44 18s31 -6 43 -18s18 -27 18 -44v-55c0 -14 -2 -29 -7 -46 l-1 -7l-3 -10c-1 -3 -2 -6 -5 -11s-5 -10 -8 -13c-3 -4 -8 -8 -13 -11c-6 -4 -12 -7 -19 -10c-11 -4 -22 -6 -34 -6c-11 0 -24 2 -39 7c-16 5 -34 16 -54 33c-5 -11 -12 -20 -22 -27c-11 -7 -22 -11 -35 -11zM431 246c0 -15 1 -30 1 -42c0 -13 -1 -24 -1 -34 c-3 -29 -9 -188 -62 -188c-18 0 -50 0 -72 19l-7 21c-11 -3 -26 -7 -45 -9c-12 -1 -25 -2 -37 -2c-16 0 -30 1 -38 3c-15 3 -26 7 -34 14c-9 7 -12 9 -19 18c-4 5 -5 9 -6 9c-9 11 -15 18 -19 22c-14 12 -23 24 -28 42c-5 17 -6 22 -9 45c0 22 -1 44 -1 62c0 19 1 34 2 41 c9 40 37 74 76 87l20 5l15 3c18 1 34 0 49 -6c1 0 3 -1 5 -2l-3 11c-9 27 -17 45 -26 56h-12c-7 0 -16 -1 -27 -4l-24 -7c-6 -2 -11 -3 -17 -3c-10 0 -20 3 -29 9c-15 8 -25 20 -30 36c-2 6 -3 11 -3 17c0 10 3 20 9 30c8 15 20 24 37 29l23 7c21 6 41 8 59 9l56 2h9 c10 0 21 -1 34 -4c18 -4 35 -12 51 -25c15 -12 28 -29 41 -50c9 -17 20 -42 31 -73s19 -56 23 -74s7 -43 8 -74zM205 134c14 -1 45 2 42 22c-5 48 -7 36 -18 69c-4 15 -15 30 -33 31c-14 -27 -21 -43 -21 -61c0 -11 2 -22 7 -36c7 -5 15 -14 23 -25z"></glyph><glyph glyph-name="ae" unicode="æ" d="M640 112c7 -10 10 -21 10 -33c0 -23 -10 -40 -27 -52l-7 -5l-15 -10c-21 -13 -42 -18 -70 -18c-22 0 -48 3 -82 6c-5 0 -11 0 -16 1c-2 -38 -13 -66 -36 -72c-6 -1 -11 -2 -16 -2c-27 0 -45 19 -55 47l-4 11c-4 12 -9 24 -13 36c-19 -6 -42 -9 -66 -9c-17 0 -34 5 -48 7 c-17 2 -35 7 -50 13c-16 4 -30 8 -38 14c-10 6 -19 14 -27 21c-8 10 -16 23 -22 37c-5 12 -8 23 -8 35c0 17 6 34 17 52c7 13 24 30 45 52c23 21 37 37 47 43c2 2 56 44 58 46l16 8c-14 54 -37 72 -71 79c-10 1 -16 0 -20 0c-10 -4 -21 -6 -31 -6c-21 3 -40 16 -50 38 c-3 7 -5 16 -5 25c0 23 13 45 37 56l7 2c11 5 23 8 37 8c4 0 8 -1 13 -1c8 -1 18 -2 31 -2c19 -1 32 -3 39 -6c19 -7 51 -22 81 -50c8 11 16 21 26 31c9 9 35 32 49 32c3 2 6 4 9 5c11 5 21 9 32 10l38 4c2 1 6 1 12 0c5 -1 9 -2 10 -1h1c1 0 4 -1 8 -2c5 -2 7 -3 8 -2 c1 0 3 -1 8 -3l8 -4l7 -4c4 -3 6 -4 7 -4c25 -13 46 -32 61 -55c15 -21 25 -44 30 -69c4 -19 6 -39 6 -61c0 -28 -1 -46 -3 -54c-1 -12 -5 -23 -10 -33c-7 -15 -18 -26 -31 -31c-13 -6 -26 -9 -38 -9h-80l-45 1h-4c1 -15 3 -28 5 -37c3 -15 8 -27 14 -36c5 -7 17 -16 35 -25 c19 -11 34 -16 44 -17c13 -1 23 -2 29 -2c3 3 7 5 11 7l6 5c10 7 21 10 33 10c24 0 41 -10 53 -27zM416 386c-2 -9 -3 -19 -4 -29h7l40 -1h39c0 15 -1 29 -3 40c-2 9 -6 17 -11 25c-5 6 -11 11 -18 16l-11 5c-5 -1 -10 -1 -17 -2l-5 -6c-7 -10 -13 -26 -17 -48zM228 116 c14 0 29 3 46 12c-8 30 -16 60 -23 92c-40 -23 -86 -55 -86 -82c0 -3 1 -6 2 -9c22 -7 41 -13 61 -13z"></glyph><glyph glyph-name="b" unicode="b" d="M152 748c36 0 65 -33 61 -68c-2 -12 -3 -32 -3 -79c0 -26 0 -60 1 -105c201 -81 252 -178 252 -287c0 -89 -86 -164 -254 -209c-20 -5 -26 -18 -43 -18c-7 0 -13 1 -20 4c-11 -8 -22 -12 -35 -12c-37 0 -61 31 -61 62l18 574c0 30 8 49 21 68c0 42 29 70 63 70zM220 118 c72 14 120 55 120 91c0 39 -13 75 -124 135l2 -53c2 -44 2 -76 2 -103v-70z"></glyph><glyph glyph-name="c" unicode="c" d="M463 472c0 -21 -10 -37 -26 -48c-14 -11 -29 -15 -46 -13l-6 1c-11 2 -24 7 -39 14c-5 2 -11 4 -17 5c-8 1 -17 2 -26 2h-2c-3 -3 -7 -7 -11 -12c-9 -11 -17 -29 -26 -56c-9 -29 -15 -58 -18 -89c-2 -33 -3 -56 -3 -67c0 -9 0 -18 1 -25l5 -10c5 -8 11 -15 20 -22 c11 -9 20 -15 27 -19c5 -2 8 -4 11 -5h15c11 7 23 10 34 10c22 0 39 -10 50 -26c8 -10 12 -22 12 -34c0 -22 -10 -40 -27 -52l-7 -5c-15 -11 -32 -16 -49 -16h-19c-9 0 -16 0 -23 1c-8 -3 -16 -5 -24 -5h-8c-7 0 -19 1 -36 3c-23 3 -45 10 -67 23c-17 10 -30 19 -41 28 c-12 10 -24 23 -36 39c-17 22 -27 47 -30 76c0 10 -1 21 -1 34c0 12 1 27 1 42c1 31 4 56 8 74s12 43 23 74s22 56 31 73c13 21 26 38 41 50c16 13 33 21 51 25c13 3 24 4 34 4h9c15 7 34 10 55 10c17 0 33 -1 48 -4c17 -3 32 -8 47 -15l7 -3l4 -1c17 -2 30 -10 41 -24 c8 -12 12 -24 13 -37z"></glyph><glyph glyph-name="cacute" unicode="ć" d="M141 617c-14 12 -22 28 -22 48c0 14 5 27 14 38l9 11c7 9 16 17 25 26c8 7 19 17 34 29l20 17c12 9 25 14 40 14c19 0 35 -7 47 -21c9 -12 14 -25 14 -40c0 -19 -7 -35 -22 -47l-20 -17l-30 -26c-5 -5 -10 -9 -14 -14l-8 -11c-13 -14 -29 -21 -48 -21c-15 0 -28 5 -39 14 zM331 96c13 -13 19 -28 19 -45s-6 -31 -18 -43s-26 -18 -43 -18h-48c-14 0 -30 2 -47 5c-19 4 -33 9 -44 14l-7 4l-6 4l-5 3l-5 5l-4 4c-1 1 -3 2 -4 4l-4 5c-1 1 -2 2 -4 5l-4 5c-13 16 -23 30 -29 43c-5 11 -11 26 -18 47c-7 23 -10 53 -10 90c0 54 2 116 20 181 c9 26 18 50 29 70c12 22 23 38 34 48c17 16 40 25 69 25h68c7 0 13 -1 19 -1s12 -1 17 -1l6 -1c17 -2 30 -10 41 -23c10 -11 14 -24 14 -37c0 -18 -7 -33 -19 -45c-11 -10 -23 -16 -37 -17h-38l-13 -25l-17 -37c-3 -8 -5 -14 -5 -20c0 -34 -2 -54 12 -97c1 -4 3 -11 9 -20 l29 -43c8 -11 12 -24 17 -34c19 -14 27 -32 26 -55z"></glyph><glyph glyph-name="ccaron" unicode="č" d="M134 726c12 10 25 15 39 15c19 0 33 -7 45 -19c3 5 7 11 10 18l15 25c9 15 21 24 38 29c5 1 10 2 16 2c10 0 20 -3 30 -9c15 -9 24 -21 29 -37c1 -6 2 -11 2 -17c0 -10 -3 -20 -9 -30l-14 -24c-9 -17 -17 -31 -24 -40c-7 -12 -15 -22 -22 -31c-11 -13 -22 -22 -35 -28 c-11 -5 -21 -7 -32 -7s-22 2 -33 7c-13 6 -25 16 -37 30l-17 20l-8 10c-9 11 -14 24 -14 39c0 19 7 35 21 47zM175 495c3 4 51 38 65 43c16 6 31 10 45 12l15 1l8 1c3 1 7 1 10 1c12 0 24 -4 34 -13c17 -12 25 -28 25 -49c0 -13 -4 -35 -12 -47c-11 -14 -24 -21 -41 -23 l-7 -1c-6 -2 -13 -3 -21 -3l-10 -3c-1 -1 -1 -1 -2 -1l-13 -18c-5 -10 -12 -27 -21 -53c-12 -41 -18 -69 -18 -92c0 -22 5 -41 14 -65c4 -8 6 -14 8 -17l13 -14c4 -5 9 -9 13 -12c2 -2 4 -3 5 -4l19 -8c29 -5 44 -19 44 -43c0 -14 -5 -32 -16 -53l-17 -27 c-11 -4 -22 -7 -33 -7c-10 1 -19 4 -30 8c-12 6 -23 11 -33 17c-9 5 -18 12 -28 21c-7 6 -15 13 -23 21c-10 9 -21 19 -33 32c-14 14 -24 27 -32 39c-10 13 -19 27 -26 43c-6 15 -11 29 -14 44c-8 23 -13 48 -13 74c0 53 19 108 58 146c12 12 23 19 31 25l16 10 c5 3 10 7 15 11z"></glyph><glyph glyph-name="ccedilla" unicode="ç" d="M422 74c13 -12 19 -26 19 -43s-6 -31 -18 -44c-12 -12 -27 -18 -43 -18h-28c10 -14 16 -30 16 -49c0 -77 -56 -120 -137 -120c-43 0 -67 27 -67 60c0 35 27 52 55 54v2c-8 2 -17 7 -21 18c-2 6 -4 12 -4 19c0 13 5 28 19 43c3 3 5 5 9 7l-20 12c-10 6 -18 11 -25 16 c-12 7 -25 17 -37 29c-12 11 -21 20 -27 27c-10 11 -21 27 -31 49c-22 44 -32 94 -32 141c0 48 10 92 27 123c13 24 24 47 40 68c17 24 34 42 51 55c17 14 31 23 43 29c14 6 29 10 44 11c7 1 13 1 19 1c7 0 15 0 21 -2l8 -2c16 -2 28 -10 37 -24c10 -13 13 -27 11 -43l7 -2 l22 -7c16 -5 31 -10 41 -23c8 -12 12 -24 12 -37c0 -21 -8 -37 -24 -49c-14 -11 -29 -15 -46 -13l-7 1c-7 2 -16 4 -41 12c-2 1 -5 1 -11 1h-1c-4 -7 -9 -16 -15 -28c-12 -31 -22 -71 -22 -111c0 -26 4 -52 14 -75c4 -7 10 -16 18 -27c7 -10 14 -18 20 -23c5 -5 9 -9 13 -11 c3 -2 8 -4 15 -6l12 -3h21c16 0 31 -6 43 -18z"></glyph><glyph glyph-name="ccircumflex" unicode="ĉ" d="M230 631c-15 0 -28 5 -40 15c-13 11 -20 25 -21 42l-1 14c-2 18 1 35 7 52l10 26c3 10 5 18 7 23c3 11 11 21 22 31c12 9 23 15 34 17c2 11 6 21 13 30s16 15 26 19c7 3 14 4 21 4c9 0 17 -2 26 -5c16 -7 27 -19 33 -34l2 -8l6 -11l16 -29c6 -11 11 -22 17 -34 c8 -17 13 -37 15 -58c1 -7 1 -14 1 -21c0 -14 -1 -28 -4 -42l-4 -6c-2 -3 -6 -9 -12 -16c-5 -7 -11 -14 -17 -19s-13 -10 -21 -15s-16 -8 -24 -8c0 -1 0 -1 -1 -1c-7 0 -15 3 -23 9c-8 5 -16 14 -22 27l-12 19l-3 6c-12 -18 -29 -27 -51 -27zM208 575c6 4 11 7 17 9l6 3 c8 3 16 5 24 5c11 0 22 -4 33 -11l13 -4l9 -3c14 -4 29 -12 45 -25l24 -19c6 -5 15 -14 25 -25l14 -15c10 -11 16 -24 16 -40c0 -19 -7 -35 -21 -47c-11 -10 -24 -16 -39 -16c-19 0 -35 7 -47 20l-13 14l-16 16c-4 4 -11 9 -19 16l-5 3c-3 1 -6 2 -8 3c-4 -11 -7 -25 -9 -42 c-7 -37 -11 -77 -11 -114c0 -29 3 -56 9 -79c3 -9 11 -39 30 -71c3 -5 7 -11 12 -17c6 -8 11 -14 14 -17c2 -3 4 -5 7 -7v-1c21 -11 29 -28 29 -53c0 -13 -2 -25 -7 -36c-7 -15 -16 -24 -25 -28c-10 -4 -20 -6 -32 -6c-7 0 -15 0 -23 2c-17 3 -35 10 -55 21 c-19 11 -35 24 -49 39c-12 13 -22 25 -31 37c-11 13 -20 28 -29 45l-19 37c-7 13 -15 27 -18 40c-6 22 -9 43 -9 65c0 54 20 115 76 208c8 13 17 25 25 35l12 16c11 19 26 33 45 42z"></glyph><glyph glyph-name="cdotaccent" unicode="ċ" d="M245 594c-16 6 -27 17 -33 33c-3 9 -5 17 -5 25s2 16 5 23c1 23 13 40 36 52c15 8 29 12 42 12c6 0 12 -1 18 -3c6 -1 12 -3 18 -6c15 -9 24 -21 29 -37c2 -6 3 -12 3 -18c0 -10 -3 -19 -9 -29l-4 -7c-4 -7 -10 -15 -18 -22c-9 -9 -18 -15 -28 -20l-7 -3 c-7 -3 -15 -5 -23 -5s-16 2 -24 5zM275 156c3 -10 6 -20 11 -29c3 -8 6 -14 8 -17l13 -14c4 -5 8 -9 13 -12c2 -2 4 -3 5 -4l19 -8c35 -6 62 -12 62 -37c0 -9 -3 -20 -11 -35l-15 -28c-12 -7 -26 -10 -41 -10c-7 0 -14 1 -22 2c-13 3 -25 6 -35 10c-11 4 -21 9 -32 16 c-8 4 -17 10 -27 16c-12 7 -24 15 -39 25c-15 11 -28 22 -39 32c-12 11 -23 23 -33 38c-44 72 -62 146 -62 213c0 77 24 143 62 185c15 13 26 23 35 28c13 8 26 14 35 18s18 7 27 9l7 2c4 1 8 1 12 1c14 0 26 -4 38 -13l17 6c11 2 23 4 36 4c30 0 64 -8 86 -30l7 -8 c12 -12 18 -27 18 -43s-7 -32 -19 -44c-12 -11 -27 -17 -42 -17c-17 0 -33 6 -45 18c-4 1 -7 1 -10 0l-3 -3c-16 -16 -28 -39 -36 -64c-11 -33 -17 -66 -17 -101c0 -32 5 -66 17 -106z"></glyph><glyph glyph-name="d" unicode="d" d="M504 657c4 -41 5 -84 5 -129c0 -78 -5 -163 -15 -254c0 21 -22 -212 -23 -242c11 -14 14 -13 14 -24c0 -28 -76 -45 -107 -45c-32 0 -45 18 -46 44c-19 -7 -41 -12 -61 -12c-128 0 -221 70 -221 197c0 134 39 213 123 272c11 8 23 12 37 11c22 16 48 23 75 23 c22 0 46 -5 68 -13c0 34 0 73 -1 116c0 46 2 81 32 102c11 26 35 37 58 37c40 0 62 -35 62 -83zM242 194c12 -25 51 -40 83 -49c7 3 14 4 20 5c2 24 3 45 4 60c2 41 3 81 4 134c-20 19 -41 28 -72 31c-8 -3 -23 -32 -30 -57zM332 9v0zM332 7c0 -1 0 -1 1 1c-1 0 -1 -1 -1 -1 z"></glyph><glyph glyph-name="eth" unicode="ð" d="M70 566c-5 9 -7 18 -7 28c0 6 1 12 3 19c5 16 14 28 29 36l6 3c4 3 11 8 21 16c-1 7 -2 15 -2 24v6c0 23 10 41 30 53c5 21 17 35 37 43c7 3 15 4 22 4s14 -1 21 -3c15 -5 26 -15 33 -28c9 6 17 11 24 14l29 16l17 8c9 5 18 7 27 7c7 0 13 -1 20 -3c16 -5 28 -15 36 -30 c4 -9 6 -18 6 -28c0 -6 -1 -13 -3 -19c-5 -17 -15 -29 -30 -36l-17 -9l-26 -13l-19 -12c11 -17 21 -35 31 -54c13 -23 23 -43 30 -60s14 -36 21 -55s13 -35 16 -48c5 -16 8 -36 11 -59c2 -21 3 -38 3 -51s-1 -31 -3 -54c-1 -25 -5 -48 -11 -71l-13 -52 c-6 -21 -14 -40 -24 -57c-11 -19 -23 -32 -34 -41c-5 -3 -12 -9 -21 -17c-15 -13 -32 -23 -53 -30c-12 -4 -23 -7 -32 -9c-15 -9 -31 -14 -48 -16l-27 -1c-18 1 -37 9 -56 25c-15 13 -30 36 -43 69c-13 30 -20 60 -22 91c-1 14 -2 29 -2 45c0 17 1 35 2 54c1 18 2 31 3 40 c1 8 4 19 10 33c5 14 13 26 24 36c6 6 13 15 21 26c13 19 27 37 42 53l19 20c7 7 16 13 26 16c-7 19 -15 38 -24 57l-13 -8l-7 -3c-9 -5 -19 -8 -29 -8c-6 0 -11 1 -17 3c-17 5 -29 15 -37 30zM239 372c-9 -11 -18 -22 -26 -33c-11 -17 -23 -32 -35 -44c-1 -7 -3 -18 -4 -31 c-1 -17 -1 -32 -1 -45c0 -14 0 -26 1 -37c1 -18 6 -36 13 -54l3 -5h10c8 7 14 14 19 19l12 16c3 4 5 11 8 20c5 12 7 23 8 33c1 13 2 30 2 50s-1 40 -2 59c-2 19 -4 33 -5 40z"></glyph><glyph glyph-name="dcaron" unicode="ď" d="M476 657c4 -41 5 -84 5 -129c0 -78 -5 -163 -15 -254c0 21 -22 -212 -23 -242c11 -14 14 -13 14 -24c0 -28 -76 -45 -107 -45c-30 0 -43 15 -46 38c-22 2 -46 6 -74 11c-42 6 -72 13 -92 20c-32 9 -55 26 -69 50c-14 21 -19 43 -19 58c0 9 2 19 5 31c2 14 7 29 12 44 c6 16 17 35 31 53c12 17 23 30 33 41c11 10 26 21 44 32c22 13 45 21 70 26c17 3 33 6 51 8c8 1 17 2 27 2h2v46c0 48 0 106 -1 178c0 46 2 81 32 102c11 26 35 37 58 37c40 0 62 -35 62 -83zM212 162c16 -1 43 0 79 3l27 3l3 42c1 14 1 29 2 43h-14c-14 -2 -27 -4 -42 -6 c-9 -3 -19 -6 -28 -11c-10 -6 -18 -12 -22 -17c-5 -5 -13 -12 -20 -23c-8 -10 -13 -19 -15 -26l-3 -6zM304 9v0z"></glyph><glyph glyph-name="dcroat" unicode="đ" d="M497 566c20 -13 28 -31 28 -49c0 -11 -3 -22 -8 -33c-15 -26 -48 -39 -89 -47c1 -26 3 -58 5 -97c2 -41 5 -84 5 -128v-99c0 -27 -2 -49 -6 -66l-4 -19c-3 -17 -12 -30 -27 -39c-10 -7 -21 -10 -32 -10c-4 0 -9 1 -14 2c-12 3 -22 8 -31 17h-3c-5 -7 -11 -13 -18 -18 c-10 -7 -21 -11 -33 -11c-23 0 -41 10 -52 27l-16 11c-61 42 -152 111 -152 206c0 33 17 53 43 77c27 25 67 54 163 88l-1 35l-53 -7c-33 -4 -61 27 -60 61c-1 33 28 57 62 62l47 8l-1 33c-8 11 -12 24 -12 37c0 14 5 27 14 38s20 19 33 22c7 14 18 24 32 29c8 3 15 5 23 5 s16 -2 24 -5c16 -7 27 -18 33 -33l6 -16c7 -15 12 -38 15 -69c1 -4 1 -9 2 -14c23 4 40 8 54 8c8 0 16 -1 23 -6zM179 185c9 -34 55 -90 82 -102l-4 163c-7 -2 -55 -20 -78 -61z"></glyph><glyph glyph-name="e" unicode="e" d="M245 234c1 -15 3 -28 5 -37c3 -15 8 -27 14 -36c5 -7 17 -16 35 -25c19 -11 34 -16 44 -17c13 -1 23 -2 29 -2c3 3 7 5 11 7l6 5c10 7 21 10 33 10c24 0 41 -10 53 -27c7 -10 10 -21 10 -33c0 -23 -10 -40 -27 -52l-7 -5l-15 -10c-14 -9 -31 -15 -52 -17 c-6 -1 -12 -1 -19 -1c-11 0 -22 1 -35 2c-3 1 -6 1 -9 1c-9 -5 -20 -8 -31 -8h-17c-13 0 -27 1 -41 2c-18 1 -38 6 -61 15c-25 9 -48 24 -69 44c-23 22 -37 45 -44 68c-5 18 -8 36 -8 55l1 53c0 21 0 36 -1 45c-1 16 3 44 12 83c9 38 18 67 27 86c8 17 15 30 22 41 s14 20 21 28c12 14 26 24 41 30c11 5 24 7 38 7c3 2 6 4 9 5c11 5 21 9 32 10l38 4c2 1 6 1 12 0c5 -1 9 -2 10 -1h1c1 0 4 -1 8 -2c5 -2 7 -3 8 -2c1 0 3 -1 8 -3l8 -4l7 -4c4 -3 6 -4 7 -4c25 -13 46 -32 61 -55c15 -21 25 -44 30 -69c4 -19 6 -39 6 -61 c0 -28 -1 -46 -3 -54c-1 -12 -5 -23 -10 -33c-7 -15 -18 -26 -31 -31c-13 -6 -26 -9 -38 -9h-80l-45 1h-4zM254 357l40 -1h39c0 15 -1 29 -3 40c-2 9 -6 17 -11 25c-5 6 -11 11 -18 16l-11 5c-5 -1 -10 -1 -17 -2l-5 -6c-7 -10 -13 -26 -17 -48c-2 -9 -3 -19 -4 -29h7z"></glyph><glyph glyph-name="eacute" unicode="é" d="M252 616c-22 4 -35 12 -46 21c-10 11 -16 24 -16 39c0 19 7 35 20 47l12 11l32 27c14 12 29 23 46 33l21 13c10 7 20 10 31 10c24 0 42 -11 54 -29c6 -10 9 -21 9 -32c0 -24 -11 -42 -30 -53l-21 -13l-32 -23l-27 -24l-12 -11c-11 -11 -25 -16 -42 -15c0 0 1 0 1 -1z M252 616h3h-3zM426 430c8 -34 10 -59 10 -76c0 -11 -1 -18 -1 -23c-1 -8 -1 -14 -5 -21c-1 -7 -4 -12 -7 -18c-6 -9 -11 -17 -17 -24c-6 -5 -11 -9 -14 -12c-5 -1 -11 -4 -18 -8l-18 -5c-22 -9 -49 -18 -75 -27c-19 -5 -38 -9 -55 -12l1 -4c8 -32 46 -60 83 -72 c9 -5 23 -6 27 -7c11 -1 21 -3 30 -8c18 -11 38 -47 38 -71c0 -10 -4 -21 -9 -30c-11 -18 -47 -36 -70 -36l-8 1c-17 0 -32 5 -48 14c-7 4 -16 9 -28 15c-17 8 -28 16 -33 21c-80 52 -130 80 -143 173c-8 29 -16 80 -16 81c0 112 19 186 65 219c60 35 99 45 129 45 c20 0 35 -5 50 -9s28 -9 39 -15c17 -6 30 -14 41 -25l25 -21l9 -11c9 -9 16 -20 18 -34zM246 335c62 19 63 42 67 53c-16 13 -41 28 -63 28c-26 0 -48 -20 -47 -88v-2c14 2 29 5 43 9z"></glyph><glyph glyph-name="ecaron" unicode="ě" d="M139 742c-1 2 -1 6 -2 12c-1 5 -2 9 -2 13c0 6 1 14 4 22c2 6 5 11 10 16c5 4 12 7 21 10c7 2 16 3 26 3c15 0 27 -2 37 -5c8 -3 14 -6 17 -9l8 -11c1 -3 2 -6 2 -8v-4l2 3l4 8c9 15 21 24 38 29c6 1 11 2 17 2c10 0 20 -3 30 -8c14 -9 23 -21 28 -38c1 -6 2 -12 2 -17 c0 -11 -3 -20 -8 -30l-5 -7l-4 -8c-2 -5 -4 -11 -7 -16l-9 -17c-5 -11 -13 -22 -23 -32c-14 -13 -31 -21 -51 -23c-8 -3 -16 -5 -24 -5c-4 0 -8 1 -12 2c-12 2 -22 8 -31 17l-8 7c-8 9 -15 18 -20 29l-13 15c-13 15 -21 30 -25 45zM367 258c-13 -33 -61 -83 -119 -115 c14 -10 36 -21 69 -36c22 -10 34 -26 34 -44c0 -19 -13 -39 -39 -55c-13 -8 -26 -11 -40 -11c-20 0 -40 6 -60 13c-133 46 -162 146 -162 235c0 56 0 115 21 173c11 29 18 47 23 56l12 22c18 33 38 41 56 46l10 5c11 7 22 11 35 11h22l17 1c15 1 31 -2 47 -9 c10 -4 27 -11 22 -10l19 -8c19 -9 33 -23 44 -40c7 -11 19 -25 22 -46c3 -18 4 -33 4 -48c0 -36 -9 -71 -37 -140zM220 275c35 25 69 62 69 104c0 7 -1 14 -3 21c-3 11 -7 18 -10 23l-24 11c-2 1 -4 1 -5 2h-3c-16 -28 -23 -66 -24 -99c-1 -21 -1 -42 -1 -63c0 1 1 1 1 1z "></glyph><glyph glyph-name="ecircumflex" unicode="ê" d="M202 625c-23 0 -40 10 -52 28c-7 10 -10 21 -10 33c0 4 0 9 1 13l7 30c5 24 10 45 17 62c5 12 8 21 9 26l7 24c9 24 26 40 52 47c7 2 14 3 20 3c8 0 16 -1 24 -4c14 -5 25 -12 34 -21c8 -9 17 -21 26 -36l19 -31l16 -28l8 -14c6 -10 9 -20 9 -30c0 -6 -1 -11 -2 -16 c-5 -17 -14 -29 -28 -38c-10 -6 -20 -9 -31 -9c-5 0 -10 1 -16 3c-17 4 -29 13 -38 28l-6 10v-1l-6 -31c-4 -19 -15 -33 -34 -42l-10 -4c-5 -2 -11 -2 -16 -2zM362 149c31 0 60 -41 55 -83c-1 -13 -17 -38 -28 -45c-34 -25 -76 -32 -121 -32c-68 0 -90 21 -103 47 c-93 9 -115 196 -115 295c0 128 108 224 217 224c31 0 80 -3 106 -25c60 -51 83 -97 83 -139c0 -43 -24 -81 -58 -114c-45 -43 -122 -73 -161 -87c3 -34 9 -63 16 -68c13 -1 24 -2 34 -2c20 0 36 4 53 21c7 5 15 8 22 8zM258 402c-14 -9 -21 -43 -24 -83c13 11 25 22 36 31 c33 28 52 43 67 57c-16 10 -26 10 -39 10s-32 -10 -40 -15z"></glyph><glyph glyph-name="edieresis" unicode="ë" d="M122 671c-15 8 -26 19 -31 35c-3 7 -4 14 -4 21c0 9 2 18 6 26l3 5v2c1 17 8 31 20 43c12 11 26 16 40 16c19 0 34 -6 47 -20c11 -12 17 -27 16 -44l-1 -9c0 -13 -4 -26 -10 -39l-4 -8c-7 -15 -19 -25 -35 -31c-7 -2 -14 -3 -20 -3c-10 0 -18 2 -27 6zM385 733 c1 -3 1 -7 1 -10c0 -12 -4 -24 -12 -35c-12 -17 -29 -26 -51 -26c-12 0 -23 3 -34 11c-14 10 -22 23 -26 40l-2 12c-2 17 1 32 11 46c12 17 30 26 50 26c12 0 24 -4 35 -12c14 -10 23 -23 25 -39zM369 365c0 -133 -114 -180 -164 -200c6 -18 9 -39 11 -49c16 6 47 11 64 11 c32 0 50 -29 50 -58c0 -25 -14 -49 -44 -51c-2 0 -42 -15 -97 -15c-17 0 -43 10 -58 23l-8 7c-19 18 -40 52 -55 103c-5 19 -18 129 -18 155c0 38 2 78 6 111c8 60 20 92 37 117l8 12c12 16 31 25 51 25c122 0 168 -58 184 -75c21 -23 27 -48 31 -77c1 -14 2 -27 2 -39z M184 280c32 9 67 25 67 46c0 47 -22 64 -29 68c-22 0 -34 -9 -38 -29c-2 -8 -2 -20 -2 -33c0 -16 1 -34 2 -52z"></glyph><glyph glyph-name="edotaccent" unicode="ė" d="M191 636c-16 6 -27 17 -33 33c-3 9 -5 17 -5 25s2 16 5 23c1 23 13 40 36 52c15 8 29 12 42 12c6 0 12 -1 18 -3c6 -1 12 -3 18 -6c15 -9 24 -21 29 -37c2 -6 3 -12 3 -18c0 -10 -3 -19 -9 -29l-4 -7c-4 -7 -10 -15 -18 -22c-9 -9 -18 -15 -28 -20l-7 -3 c-7 -3 -15 -5 -23 -5s-16 2 -24 5zM426 430c8 -34 10 -59 10 -76c0 -11 -1 -18 -1 -23c-1 -8 -1 -14 -5 -21c-1 -7 -4 -12 -7 -18c-6 -9 -11 -17 -17 -24c-6 -5 -11 -9 -14 -12c-5 -1 -11 -4 -18 -8l-18 -5c-22 -9 -49 -18 -75 -27c-18 -5 -35 -8 -51 -11 c-1 -57 8 -77 32 -77c12 0 28 5 49 13c7 5 15 8 22 8c31 0 60 -41 55 -83c-1 -13 -17 -38 -28 -45c-34 -25 -76 -32 -121 -32c-68 0 -105 12 -122 37c-67 99 -67 254 -67 255c0 112 19 186 65 219c60 35 99 45 129 45c20 0 35 -5 50 -9s28 -9 39 -15c17 -6 30 -14 41 -25 l25 -21l9 -11c9 -9 16 -20 18 -34zM246 335c62 19 63 42 67 53c-16 13 -41 28 -63 28c-26 0 -48 -20 -47 -88v-2c14 2 29 5 43 9z"></glyph><glyph glyph-name="egrave" unicode="è" d="M177 641l-8 10c-9 11 -13 23 -13 37c0 21 8 37 23 49c10 9 23 13 37 13c20 0 37 -7 49 -22l7 -9c3 -4 9 -9 16 -15c7 -7 12 -11 16 -14l10 -6c18 -12 27 -29 27 -52c0 -12 -3 -23 -9 -33c-12 -18 -29 -28 -54 -28c-11 0 -22 3 -32 10l-9 6c-9 6 -20 14 -32 25 s-21 20 -28 29zM353 478c45 -1 69 -30 69 -87c0 -8 -1 -17 -2 -27c-36 -154 -122 -189 -184 -189c-9 0 -18 1 -26 2c8 -25 27 -48 76 -48c4 0 9 1 15 1c4 1 9 1 13 1c36 0 62 -38 62 -73c0 -30 -19 -58 -67 -58c-113 0 -213 51 -250 150c-6 17 -9 53 -9 88c0 26 1 51 4 66 c20 118 84 177 190 220c2 1 5 1 8 1c4 0 7 0 9 -1c5 1 10 2 16 2c23 0 51 -11 76 -48zM204 267c29 17 70 51 94 125l-31 7c-22 -12 -49 -37 -61 -88c-2 -7 -2 -25 -2 -44z"></glyph><glyph glyph-name="emacron" unicode="ē" d="M112 639c-19 0 -35 7 -46 21c-11 11 -16 24 -16 39c0 19 7 35 20 47l7 6c11 10 26 17 44 22c9 2 20 5 33 9l42 11l38 9l11 2c4 1 8 1 13 1c11 0 23 -3 33 -10c17 -13 27 -30 27 -52c0 -12 -3 -23 -10 -33c-10 -15 -23 -24 -40 -27l-11 -2l-29 -7c-15 -4 -29 -8 -43 -11 l-31 -8l-2 -2c-11 -10 -24 -15 -40 -15zM386 315c-33 -157 -112 -142 -160 -185c1 -16 1 -31 2 -48c3 -1 6 -1 10 -1c9 0 19 2 26 4c32 -3 79 -13 79 -40c0 -41 -57 -65 -110 -65c-38 0 -84 9 -100 41c-64 58 -67 154 -67 260c0 140 12 174 77 250c10 12 49 24 82 24 c5 0 10 0 14 -1c5 -2 23 1 19 -19c60 -8 136 -41 136 -152c0 -20 -3 -43 -8 -68zM223 269c35 37 52 66 52 91c0 22 -14 40 -42 58c-4 -20 -5 -65 -8 -114z"></glyph><glyph glyph-name="eogonek" unicode="ę" d="M151 -75c0 38 18 63 40 84c-10 7 -17 17 -22 27c-77 7 -119 169 -119 306c0 114 98 222 199 222c38 0 111 -16 117 -79c52 -10 76 -43 76 -84c0 -97 -110 -164 -197 -206c2 -36 5 -68 12 -73c63 -16 66 27 109 27c35 0 57 -47 57 -77c0 -33 -19 -48 -44 -60 c-74 -38 -101 -58 -105 -85c0 -28 31 -27 59 -27c32 0 61 -29 61 -63s-27 -61 -61 -61c-108 5 -182 57 -182 149zM236 325c66 60 86 96 90 101c-10 4 -18 5 -25 5c-56 0 -73 -41 -65 -106z"></glyph><glyph glyph-name="f" unicode="f" d="M508 587c0 -34 -28 -61 -62 -61c-10 0 -21 3 -30 8c-6 2 -12 2 -18 2c-49 0 -84 -56 -84 -140c13 -4 22 -5 35 -5c37 0 62 -31 62 -62c0 -32 -27 -61 -61 -61l-32 1c0 -106 -12 -231 -28 -297c-10 -34 -28 -52 -66 -52c-36 0 -73 26 -73 73c0 2 -1 7 -1 16c0 4 0 9 1 15 c2 31 2 60 2 87c0 61 -3 115 -4 176c-62 7 -99 15 -99 66c0 34 28 61 62 61c14 0 28 0 43 -1c2 52 8 91 32 130c42 71 92 115 145 115c6 0 13 -1 19 -2c7 2 20 3 39 2c13 -1 23 -1 31 -1c44 0 87 -27 87 -70z"></glyph><glyph glyph-name="g" unicode="g" d="M407 562c22 7 104 -36 99 -62c0 -10 -7 -12 -18 -21l-4 -37c0 -180 -16 -413 -47 -521c-16 -57 -94 -116 -194 -116c-22 0 -46 3 -70 10c-27 7 -36 22 -43 39c-44 19 -71 50 -71 81c0 6 1 12 3 18c9 26 32 39 56 39c7 0 15 -1 22 -4c12 -4 34 -21 38 -22 c3 -1 37 -18 69 -18c28 0 54 13 57 58l5 46c-13 -3 -26 -4 -39 -4c-40 0 -79 12 -105 38c-74 3 -115 146 -115 245c0 128 108 224 217 224c31 0 62 -8 91 -25l9 -5c8 26 14 35 40 37zM367 525c0 0 -1 0 -1 -2c0 1 0 1 1 2zM253 172c30 -2 55 2 77 18c6 42 12 87 18 133 c2 16 5 43 7 72c-23 10 -46 15 -65 15c-13 0 -24 -3 -32 -8c-18 -12 -26 -69 -26 -123c0 -50 7 -98 21 -107z"></glyph><glyph glyph-name="gbreve" unicode="ğ" d="M140 715l-5 14c-2 6 -3 13 -3 19c0 9 2 19 7 28c8 15 20 26 36 31c6 1 12 2 18 2c9 0 19 -2 28 -6c15 -8 26 -20 31 -36l4 -10c0 4 1 7 2 10l2 9c3 17 12 30 27 39c10 6 21 9 32 9c23 0 41 -11 53 -29c6 -10 9 -21 9 -32c0 -5 -1 -10 -2 -15l-2 -9v-3 c0 -10 -1 -20 -3 -31c-3 -17 -11 -33 -24 -48c-10 -12 -23 -21 -39 -26c-23 -9 -39 -13 -52 -13c-15 0 -26 5 -42 11l-10 5c-16 8 -30 20 -43 36c-11 14 -19 29 -24 45zM472 377c0 -12 -2 -23 -3 -33l-1 -12l1 -8v-6c0 -5 1 -10 1 -16c2 -23 2 -44 2 -64c0 -17 0 -33 -1 -48 v-22c0 -238 -75 -360 -167 -360c-21 0 -43 7 -66 20c-5 -1 -11 -2 -16 -2l-20 2c-22 4 -35 6 -53 14l-27 13c-9 5 -19 10 -31 18l-18 12c-12 8 -17 15 -20 30c-2 6 -3 12 -3 18c0 11 4 22 11 32c8 12 20 22 34 26c5 1 10 2 15 2c13 0 25 -4 36 -10l15 -10 c26 -18 52 -26 73 -26c41 0 70 30 70 87c-11 -2 -22 -3 -33 -3c-92 0 -161 79 -185 131c-10 31 -15 59 -15 106c0 30 2 67 5 118c1 14 -4 31 -4 48c0 18 3 34 10 49c6 12 14 22 24 31c8 6 16 12 26 17c19 9 36 14 51 14c4 0 9 1 14 1c8 0 17 -1 27 -2l9 -1h6h8 c7 0 16 0 26 -1c17 -1 31 -4 46 -7c1 3 3 6 4 8c5 9 11 14 18 17c1 0 1 0 1 -1c7 3 16 4 26 3c8 -2 16 -3 24 -6s16 -6 23 -11c9 -4 15 -8 17 -11l7 -3c8 -12 14 -24 20 -38c3 -5 5 -12 7 -19c6 -20 10 -41 9 -59c0 -13 -1 -25 -3 -38zM223 231c0 -43 25 -76 82 -83 c0 62 -8 234 -10 250c-12 3 -21 4 -28 4c-10 0 -17 -2 -23 -3c-2 -10 -10 -18 -21 -20c0 -29 -1 -78 -1 -113c0 -17 0 -30 1 -35z"></glyph><glyph glyph-name="gcircumflex" unicode="ĝ" d="M244 659c-15 5 -27 14 -36 28c-6 10 -9 21 -9 32c0 4 0 9 1 13l5 19c3 15 7 28 10 37c2 5 4 13 6 24c3 15 6 27 9 35l4 12c4 15 12 27 24 36c13 9 25 15 37 16c4 1 8 1 12 1c22 0 41 -9 58 -27c8 -8 17 -19 26 -32c9 -12 16 -23 23 -34l17 -25c15 -9 24 -21 28 -37 c2 -6 3 -12 3 -17c0 -10 -3 -20 -8 -29c-9 -15 -21 -24 -38 -29c-6 -2 -11 -3 -17 -3c-10 0 -20 3 -29 8l-7 4c-13 7 -25 19 -35 35l-2 3c-1 -3 -1 -4 -1 -5l-5 -19c-3 -12 -8 -22 -17 -31c-14 -11 -29 -16 -46 -16c-5 0 -9 0 -13 1zM411 562c22 7 111 -37 106 -63 c0 -10 -7 -12 -18 -21l-4 -37c-19 -179 -28 -376 -64 -483c-22 -76 -133 -155 -210 -155c-27 0 -50 10 -63 35c-76 25 -108 57 -108 88c0 6 1 11 3 17c9 24 29 37 55 37c11 0 23 -3 36 -8c11 -5 33 -22 37 -24c2 -1 12 -3 26 -3c32 0 80 12 95 81c-14 1 -27 4 -37 7 c-5 1 -10 3 -15 5l-10 -1c-4 0 -9 1 -13 2l-16 4c-35 9 -65 29 -96 69c-28 37 -42 44 -46 96c-1 21 -2 41 -2 58c0 37 0 64 15 117c15 51 28 92 53 124c0 1 9 15 14 20s16 15 31 19c7 2 15 3 24 3h7c1 0 3 0 5 -1c2 2 25 4 55 4c15 0 32 0 49 -2c21 -1 39 -7 54 -13 c8 14 20 24 37 25zM362 510c0 1 -1 0 -1 -2c0 1 0 1 1 2zM268 183c8 -13 15 -21 20 -25c8 -7 13 -8 22 -8c6 4 11 6 17 8c6 39 11 90 16 165c1 19 4 50 7 81c-12 9 -26 15 -40 15c-12 0 -23 -4 -34 -15c-11 -19 -24 -49 -24 -80v-43c0 -47 0 -71 16 -98z"></glyph><glyph glyph-name="gcommaaccent" unicode="ģ" d="M188 652c-12 4 -27 25 -30 44c-1 4 -1 7 -1 11c0 12 4 24 12 34l5 7c6 9 13 17 23 24c4 4 11 12 23 24c14 16 25 28 33 36l12 14c11 15 28 22 48 22c14 0 27 -5 38 -14c13 -10 20 -24 22 -41c1 -17 -4 -32 -14 -46l-12 -14c-9 -10 -21 -24 -37 -41l-37 -36l-5 -7 c-10 -14 -24 -22 -40 -24c2 -1 -16 -4 -40 7zM500 496c0 -13 -8 -26 -27 -36v-12l4 -342c0 -34 -10 -112 -24 -147c-5 -11 -10 -23 -15 -38c-13 -43 -51 -67 -75 -84c-29 -20 -82 -29 -111 -29c-12 0 -87 7 -98 10c-52 5 -95 39 -95 84c0 36 30 60 62 60s41 -8 41 -8 c19 -6 37 -9 52 -9c60 0 92 39 96 71c-14 -6 -30 -10 -48 -10c-15 0 -33 3 -52 9c-5 1 -11 3 -17 5c-10 -1 -19 0 -28 3c-2 1 -5 3 -8 4l-6 2c-25 12 -49 40 -70 75c-21 41 -31 105 -31 131c11 81 15 154 64 216c42 45 87 58 126 58c21 0 40 -4 55 -8c-1 3 -1 7 -1 10 c0 26 29 43 79 43c70 0 113 -16 123 -40c2 -6 4 -12 4 -18zM294 151l7 11l6 11c-2 57 -5 115 -7 174c-6 1 -12 1 -18 1c-66 0 -77 -52 -77 -144c0 -52 23 -80 48 -80c14 0 29 9 41 27z"></glyph><glyph glyph-name="gdotaccent" unicode="ġ" d="M272 649c-16 6 -27 17 -33 33c-3 9 -5 17 -5 25s2 16 5 23c1 23 13 40 36 52c15 8 29 12 42 12c6 0 12 -1 18 -3c6 -1 12 -3 18 -6c15 -9 24 -21 29 -37c2 -6 3 -12 3 -18c0 -10 -3 -19 -9 -29l-4 -7c-4 -7 -10 -15 -18 -22c-9 -9 -18 -15 -28 -20l-7 -3 c-7 -3 -15 -5 -23 -5s-16 2 -24 5zM410 562c22 7 104 -36 99 -62c0 -10 -7 -12 -18 -21l-4 -37c0 -180 -16 -413 -47 -521c-16 -57 -94 -116 -194 -116c-22 0 -46 3 -70 10c-27 7 -36 22 -43 39c-44 19 -71 50 -71 81c0 6 1 12 3 18c9 26 32 39 56 39c7 0 15 -1 22 -4 c12 -4 34 -21 38 -22c3 -1 37 -18 69 -18c28 0 54 13 57 58l5 46c-16 -5 -33 -7 -50 -7c-108 0 -212 99 -212 223c0 8 0 15 1 23c10 99 66 237 140 232c23 19 56 28 89 28c31 0 63 -8 91 -22c8 23 14 31 39 33zM370 525c0 0 -1 0 -1 -2c0 1 0 1 1 2zM294 187c12 0 25 2 39 5 c6 41 12 86 18 131c2 15 4 39 7 65c-23 28 -51 39 -89 40c-14 -7 -26 -54 -32 -104c-2 -17 -2 -34 -2 -50c0 -35 4 -65 15 -75c8 -6 18 -10 31 -11c4 0 8 -1 13 -1z"></glyph><glyph glyph-name="h" unicode="h" d="M394 487c70 -40 86 -61 86 -312c0 -35 -1 -74 -1 -118c0 -35 -27 -62 -61 -62s-73 27 -72 62l4 245c1 47 -38 75 -90 75c-8 0 -15 -1 -23 -2c-1 -19 -13 -266 -13 -288v-38c0 -33 -29 -61 -62 -61c-28 0 -52 19 -59 46c-31 5 -53 30 -53 61c0 20 4 60 4 62v166 c0 42 15 252 25 330c5 30 32 52 62 52c5 0 19 -3 25 -6c3 1 13 3 25 3c40 -1 55 -27 55 -70l-2 -111c50 4 116 -15 150 -34z"></glyph><glyph glyph-name="hbar" unicode="ħ" d="M493 423c74 -42 87 -64 87 -303v-63c0 -35 -27 -62 -61 -62s-72 27 -72 62l2 181c1 47 -38 75 -90 75c-8 0 -15 -1 -23 -2c-1 -19 -11 -202 -11 -224v-38c0 -33 -29 -61 -62 -61c-28 0 -52 19 -59 46c-31 5 -53 30 -53 61c0 20 4 60 4 62v166c0 23 5 99 10 175 c-7 -1 -13 -2 -18 -2c-8 -1 -16 -1 -22 -1l-11 1l-6 -2c-14 -1 -27 3 -39 11c-10 11 -18 22 -19 36c1 21 7 31 10 37c10 13 22 20 38 21h6c6 0 12 1 20 2h10c11 2 21 3 26 3h3s4 0 12 1c2 19 3 35 5 48c5 30 32 52 62 52c5 0 19 -3 25 -6c3 1 13 3 25 3c40 -1 55 -27 55 -70 v-20c31 1 62 1 86 2l13 -1l15 -1c14 0 25 -5 36 -16c9 -11 14 -22 14 -37c-1 -15 -7 -27 -17 -36c-11 -10 -23 -16 -38 -14h-14c-1 -1 -4 1 -7 0c-22 0 -55 0 -91 -2c0 -28 -1 -50 -1 -50c50 4 116 -15 150 -34z"></glyph><glyph glyph-name="hcircumflex" unicode="ĥ" d="M79 671c-13 10 -21 22 -26 38c-1 5 -1 9 -1 14c0 7 1 13 3 19c1 4 3 9 5 12l10 17c8 13 16 24 21 32c4 4 8 11 13 21c8 13 14 24 20 30l7 10c9 14 20 22 35 27c10 3 19 5 28 5c4 0 8 0 11 -1c5 0 8 -1 12 -3c21 -6 36 -21 47 -43c5 -10 10 -24 15 -39c5 -14 8 -27 11 -39 l9 -29c11 -13 16 -28 16 -44c-1 -6 -2 -12 -4 -17c-3 -10 -9 -18 -16 -25c-12 -11 -25 -16 -40 -16c-10 0 -16 0 -22 2c-10 3 -18 9 -25 17l-6 6c-10 11 -18 26 -22 44l-1 3c-2 -2 -3 -3 -3 -4l-10 -17c-7 -10 -15 -18 -26 -24c-8 -3 -17 -5 -25 -5c-12 0 -24 3 -36 9z M99 -5c-15 1 -27 8 -36 19c-10 11 -14 24 -13 38l1 11v61c0 134 5 446 58 499c9 10 22 15 37 15c4 0 8 0 11 -1c3 1 7 1 9 1c15 0 27 -5 38 -16c11 -10 16 -23 16 -37v-150c19 8 37 12 52 12c11 0 25 -2 42 -4c26 -3 48 -13 66 -28c13 -12 24 -25 32 -37 c7 -12 14 -28 21 -47c6 -18 12 -44 19 -80c7 -35 11 -90 12 -124c2 -33 3 -57 2 -71c1 -1 1 -3 1 -5l-1 -14c-1 -6 -2 -12 -4 -18s-6 -12 -12 -18c-6 -7 -13 -12 -22 -16l-6 -2c-7 -2 -14 -4 -21 -4c-6 0 -12 2 -20 4c-24 5 -33 15 -39 28c-4 8 -4 15 -4 22v14 c0 7 1 13 5 19c0 12 -1 30 -2 54c-1 27 -3 64 -9 94l-15 62c-4 12 -7 20 -9 23c-3 4 -8 8 -12 14c-2 1 -5 2 -10 3c-10 0 -9 1 -15 1c-3 0 -9 -1 -15 -5c-9 -4 -16 -8 -20 -13c-5 -5 -8 -10 -9 -13l-7 -14c0 -72 8 -144 8 -203c0 -19 -1 -33 -2 -40l-2 -9 c-3 -14 -10 -25 -23 -34c-9 -6 -18 -9 -29 -9c-19 0 -34 9 -45 24c-9 -5 -18 -7 -28 -6z"></glyph><glyph glyph-name="i" unicode="i" d="M164 733c32 -5 59 -33 59 -70c0 -47 -37 -81 -75 -81c-41 0 -90 34 -90 78c0 40 30 83 72 83c12 0 24 -3 34 -10zM223 72c0 45 -3 370 -3 367c0 18 0 24 -3 32c1 4 1 9 1 15c0 14 -2 31 -3 38c-6 35 -15 29 -55 29h-49c-33 0 -61 -29 -61 -62c0 -13 4 -25 12 -36 c0 -12 4 -91 4 -173c0 -63 -3 -176 -3 -210c0 -59 37 -72 77 -72c41 0 83 14 83 72z"></glyph><glyph glyph-name="dotlessi" unicode="ı" d="M250 265c2 -23 3 -46 3 -69v-63l-1 -71c0 -17 -6 -32 -18 -44c-13 -12 -27 -18 -44 -18l-13 1c-5 -1 -11 -1 -17 -1c-24 0 -46 5 -61 20c-1 2 -3 4 -5 6c-10 12 -15 25 -15 40l3 67l3 34c0 40 1 84 1 115c0 82 -4 149 -4 161c-28 11 -32 35 -32 48c0 33 28 62 61 62h69 c40 0 55 -6 55 -29l5 -106c2 -20 3 -42 4 -66c2 -39 4 -68 6 -87z"></glyph><glyph glyph-name="iacute" unicode="í" d="M76 585c-9 11 -14 24 -14 39c0 19 7 35 22 47l12 10l21 18c7 7 15 14 22 20l16 16l8 7c11 12 26 18 43 18s32 -6 44 -17c11 -12 17 -27 17 -44s-6 -32 -17 -44l-8 -7l-21 -20l-22 -20c-8 -7 -16 -14 -25 -21l-12 -10c-11 -9 -24 -14 -39 -14c-19 0 -35 7 -47 22zM72 494 c0 17 6 31 19 43c12 11 25 18 40 18c27 0 55 -5 68 -18c16 -13 16 -34 16 -45c0 -10 -1 -20 -5 -73v-360c-1 -45 -41 -59 -80 -59c-41 0 -83 15 -80 62c1 13 3 37 4 56c1 17 3 47 5 89c2 43 4 81 7 116l8 87c1 10 -2 69 -2 84z"></glyph><glyph glyph-name="icircumflex" unicode="î" d="M112 575c-20 0 -36 8 -48 23c-11 13 -15 28 -13 45l2 19c2 17 5 32 10 45l11 29l13 33c4 9 7 16 10 21c3 6 6 13 11 21c16 25 38 40 68 40c16 0 32 -5 49 -16c9 -6 17 -13 24 -21c7 -9 11 -15 14 -20l12 -25c10 -23 17 -41 22 -54c4 -10 8 -18 11 -25s6 -12 9 -16l7 -9 c7 -11 11 -22 11 -34c0 -22 -10 -40 -26 -51c-11 -8 -22 -12 -35 -12c-22 0 -40 10 -51 26l-6 10c-7 9 -13 19 -18 30c-6 11 -12 24 -17 39l-3 -9c-1 -3 -3 -9 -4 -16l-2 -18c-2 -17 -10 -30 -23 -41c-12 -9 -24 -14 -38 -14zM75 265c2 19 4 48 6 87c1 24 2 46 4 66l6 71 c2 36 40 67 100 67s100 -26 100 -65c0 -13 -4 -54 -48 -65c0 -12 -4 -62 -4 -144c0 -31 1 -75 1 -115l3 -34l3 -67c0 -15 -5 -28 -15 -40c-2 -2 -4 -4 -5 -6c-15 -15 -37 -20 -61 -20c-6 0 -12 0 -17 1l-13 -1c-17 0 -31 6 -44 18c-12 12 -18 27 -18 44l-1 71v63 c0 23 1 46 3 69z"></glyph><glyph glyph-name="idieresis" unicode="ï" d="M292 732c17 0 31 -6 43 -18s18 -27 18 -44v-18c0 -17 -6 -31 -18 -43s-26 -18 -43 -18s-32 6 -44 18s-18 26 -18 43v18c0 17 6 32 18 44s27 18 44 18zM159 598c-9 -5 -18 -7 -27 -7c-11 0 -22 3 -33 10c-17 4 -30 13 -40 27c-6 10 -9 20 -9 31c0 25 10 43 28 54l6 4 c10 6 20 9 30 9c17 0 34 -6 47 -15c11 -7 18 -14 22 -23l4 -8c4 -8 6 -17 6 -25c0 -7 -1 -14 -3 -22c-6 -16 -16 -28 -31 -35zM286 72c0 45 -3 370 -3 367c0 18 0 24 -3 32c1 4 1 9 1 15c0 14 -2 31 -3 38c-6 35 -15 29 -55 29h-49c-33 0 -61 -29 -61 -62 c0 -13 4 -25 12 -36c0 -12 4 -91 4 -173c0 -63 -3 -176 -3 -210c0 -59 37 -72 77 -72c41 0 83 14 83 72z"></glyph><glyph glyph-name="i.loclTRK" d="M129 597c-16 6 -27 17 -33 33c-3 9 -5 17 -5 25s2 16 5 23c1 23 13 40 36 52c15 8 29 12 42 12c6 0 12 -1 18 -3c6 -1 12 -3 18 -6c15 -9 24 -21 29 -37c2 -6 3 -12 3 -18c0 -10 -3 -19 -9 -29l-4 -7c-4 -7 -10 -15 -18 -22c-9 -9 -18 -15 -28 -20l-7 -3 c-7 -3 -15 -5 -23 -5s-16 2 -24 5zM272 496c0 -13 -8 -26 -27 -36v-12s4 -374 4 -346c0 -25 -3 -102 -84 -102h-40c-58 0 -75 70 -75 76c0 151 19 253 19 419c-2 6 -3 11 -3 16c0 26 29 43 79 43c70 0 113 -16 123 -40c2 -6 4 -12 4 -18zM249 103v0zM249 103v0zM249 102v1 v-1z"></glyph><glyph glyph-name="igrave" unicode="ì" d="M250 612c-12 -16 -29 -26 -52 -26c-12 0 -24 4 -34 12l-25 18c-17 13 -29 22 -36 28s-14 12 -19 18c-6 6 -11 13 -16 20l-6 7c-8 11 -12 22 -12 35c0 22 9 39 25 51c11 8 22 12 35 12c22 0 39 -9 51 -25l5 -7l8 -9l9 -9c4 -4 13 -11 28 -22l25 -17c16 -12 25 -29 25 -51 c0 -13 -4 -25 -11 -35zM277 265c2 -23 3 -46 3 -69v-63l-1 -71c0 -17 -6 -32 -18 -44c-13 -12 -27 -18 -44 -18l-13 1c-5 -1 -11 -1 -17 -1c-24 0 -46 5 -61 20c-1 2 -3 4 -5 6c-10 12 -15 25 -15 40l3 67l3 34c0 40 1 84 1 115c0 82 -4 149 -4 161c-28 11 -32 35 -32 48 c0 33 28 62 61 62h69c40 0 55 -6 55 -29l5 -106c2 -20 3 -42 4 -66c2 -39 4 -68 6 -87z"></glyph><glyph glyph-name="imacron" unicode="ī" d="M60 620c-7 10 -10 21 -10 33c0 23 10 40 27 52l7 5c10 7 26 13 49 20l48 13c17 4 34 7 51 9l39 4c13 1 23 2 30 2h7c17 0 31 -6 43 -18s18 -26 18 -43s-6 -31 -18 -43c-12 -13 -26 -19 -43 -19h-7l-18 -1c-11 -1 -24 -3 -38 -4c-11 -1 -23 -4 -34 -7l-44 -11l-17 -6 l-5 -3c-10 -7 -21 -10 -33 -10c-23 0 -40 10 -52 27zM127 140v5c0 11 -1 23 -2 37c-4 36 -7 123 -7 173c0 40 0 14 1 43v29c0 100 17 129 60 131c0 0 19 1 38 3c58 3 76 -33 76 -101c0 -16 -1 -35 -3 -56c0 -4 0 -7 -1 -11l-1 -5v-71v-31c0 -21 0 -42 1 -62l3 -40 c0 -13 1 -27 2 -40c5 -22 7 -42 7 -59c0 -29 -7 -50 -20 -64c-12 -13 -27 -19 -44 -19c-5 0 -15 -3 -28 -3c-30 0 -72 14 -80 104z"></glyph><glyph glyph-name="iogonek" unicode="į" d="M322 -109c0 -13 -4 -24 -11 -34l-9 -13c-13 -17 -27 -29 -42 -36c-11 -4 -26 -7 -45 -7c-26 0 -50 5 -71 16c-8 4 -15 9 -22 15c-14 13 -25 28 -32 47s-10 36 -10 52c0 12 9 51 26 74c-18 11 -31 31 -31 53c0 20 10 40 27 51c-3 7 -7 18 -10 28l-3 13c-2 7 -4 25 -4 33 c-1 7 -3 34 -3 43c-4 42 -5 86 -5 124c0 50 2 88 2 93v13c-15 5 -29 21 -29 45c0 51 43 56 89 56c71 0 152 -22 152 -83c0 -15 -4 -42 -33 -42c-4 0 -10 0 -16 2c-3 -45 -5 -80 -5 -109c0 -35 2 -62 5 -90c3 -24 6 -45 7 -62c1 -6 1 -11 2 -14c4 -9 7 -18 9 -27 c1 -3 1 -7 2 -10c30 -4 54 -31 54 -62c0 -36 -30 -62 -64 -61l-11 1h-9c-2 -5 -15 -18 -25 -47c-2 -9 -3 -17 -4 -22c0 -1 1 -3 2 -6c1 -1 2 -1 3 -1l3 4c11 17 29 26 51 26c12 0 24 -4 35 -12c16 -11 25 -29 25 -51z"></glyph><glyph glyph-name="j" unicode="j" d="M240 737c57 0 90 -31 90 -78s-45 -83 -94 -83c-50 0 -97 35 -97 87c0 43 35 77 79 77c7 0 14 -1 22 -3zM351 460c19 10 27 23 27 36c0 6 -2 12 -4 18c-10 24 -53 40 -123 40c-50 0 -79 -17 -79 -43c0 -5 1 -10 3 -16c0 -166 2 -303 2 -454c0 -41 -7 -79 -24 -102 c0 0 -9 8 -41 8s-62 -24 -62 -60c0 -45 39 -65 91 -70c11 -3 22 -4 34 -4c29 0 61 9 90 29c24 17 38 46 51 89c5 15 10 27 15 38c14 35 24 103 24 137l-4 342v12z"></glyph><glyph glyph-name="jcircumflex" unicode="ĵ" d="M165 708c3 13 9 23 17 31c8 7 16 12 25 14l23 4h6c4 0 7 0 8 -1c26 -3 48 -15 66 -38c9 -12 18 -24 25 -36c4 -7 7 -11 9 -13l5 -6c10 -12 15 -25 15 -40c0 -19 -7 -35 -21 -47c-12 -10 -25 -15 -41 -15c-17 0 -31 6 -43 18c-5 -11 -14 -20 -26 -27l25 -1 c17 -1 29 -2 36 -3l25 -4l17 -3c17 -3 30 -12 40 -26c7 -11 11 -23 11 -35c0 -20 -8 -35 -23 -47c1 -51 5 -98 5 -163c1 -13 -1 -41 -1 -67c0 -9 0 -17 1 -25c2 -31 3 -54 3 -69l-1 -49c-1 -22 -3 -38 -6 -48c-1 -5 -5 -14 -10 -28c-6 -17 -13 -31 -20 -43s-16 -24 -26 -35 c-13 -15 -30 -28 -49 -37c-20 -9 -40 -13 -61 -13l-45 -1c-17 0 -34 4 -49 11s-27 18 -38 33l-7 10c-7 10 -10 21 -10 33c0 23 10 40 27 52c10 7 22 11 34 11c15 0 29 -5 40 -15l7 5c2 2 7 7 16 15l12 11c3 7 6 16 10 29c7 23 12 45 15 67c3 23 4 40 4 51v60 c0 25 -1 51 -3 78c-2 25 -6 47 -12 68c-8 27 -13 45 -14 55h-5c-17 0 -31 6 -43 19c-13 12 -19 26 -19 43c0 15 5 28 15 39c9 11 21 18 36 21c-21 13 -30 32 -28 58l1 14c1 13 3 26 7 40c3 11 7 21 10 30z"></glyph><glyph glyph-name="k" unicode="k" d="M431 122c24 -34 32 -34 32 -61c0 -34 -29 -61 -62 -61c-51 0 -114 107 -167 193v-170c0 -33 -29 -62 -62 -62c-29 0 -55 22 -60 50c-52 36 -62 330 -62 464c0 116 0 221 80 221c12 0 24 -3 34 -10c9 4 18 6 28 6c36 0 64 -33 60 -68c0 -24 -5 -182 -3 -179l77 91 c13 15 30 22 47 22c42 0 64 -32 64 -75c0 -35 -72 -104 -135 -165c10 -16 20 -30 27 -42c19 -35 22 -41 46 -73c50 -70 14 -20 56 -81z"></glyph><glyph glyph-name="kcommaaccent" unicode="ķ" d="M472 32c7 -10 10 -22 10 -33c0 -21 -10 -41 -28 -52c-10 -6 -22 -9 -33 -9c-20 0 -41 10 -53 28l-3 6l-15 24c-9 16 -21 30 -30 42c-15 19 -32 48 -49 77c-24 45 -36 61 -54 105l-12 -6c0 -29 3 -58 4 -72l5 -91c2 -33 -2 -55 -35 -55c-5 0 -9 1 -14 2 c-7 -2 -12 -3 -16 -3c-11 0 -13 9 -24 26l-7 11c-12 16 -17 25 -28 49c-14 28 -36 136 -36 177l-4 194v71c0 32 2 77 5 101c3 19 9 36 18 49l6 9c19 28 54 37 85 37c11 5 22 7 34 6c33 -4 58 -35 54 -68l-2 -15c-1 -8 -1 -14 -2 -19c0 -7 -1 -27 -4 -58c-1 -9 -1 -18 -1 -27 c1 1 -1 -65 0 -63l81 63l4 13c5 20 23 29 43 29c16 0 34 -6 46 -16c12 -9 17 -24 17 -39c0 -19 -8 -39 -20 -52l-7 -8c-6 -7 -15 -16 -25 -25l-20 -18c-7 -7 -16 -15 -26 -24c-8 -8 -19 -19 -36 -34l-18 -16c3 -7 65 -122 73 -138c8 -17 31 -49 46 -72c12 -21 20 -30 33 -46 c7 -10 15 -21 22 -34l12 -20zM275 -58c37 0 57 -21 57 -53c0 -10 -2 -22 -6 -34c-2 -6 -3 -7 -11 -32l-4 -18c-5 -16 -14 -28 -29 -37c-9 -6 -20 -8 -30 -8c-21 0 -42 11 -53 30c-6 10 -8 20 -8 31c0 5 0 10 1 15l3 23c1 10 16 39 17 39c19 34 39 44 63 44z"></glyph><glyph glyph-name="l" unicode="l" d="M187 -10c40 0 56 23 56 58c0 16 -4 34 -10 54c-2 9 -5 18 -9 27c-1 3 -1 8 -2 14c-1 17 -4 38 -7 62c-3 22 -5 41 -6 56c-1 31 -3 143 -3 176c0 108 4 143 4 165c8 11 12 23 12 36c0 33 -28 62 -61 62h-49c-40 0 -49 6 -55 -29c-1 -9 -3 -26 -3 -40c0 -5 0 -10 1 -13 c-4 -15 -1 17 -4 -144c0 -21 -1 -47 -1 -77c0 -91 3 -208 8 -244c0 -87 50 -163 129 -163z"></glyph><glyph glyph-name="lacute" unicode="ĺ" d="M283 830c4 -9 6 -18 6 -26c0 -7 -1 -13 -3 -20c-5 -17 -15 -29 -30 -37l-10 -5c-3 -2 -9 -6 -16 -13c-11 -11 -22 -21 -32 -30l-12 -12c1 -10 16 -26 24 -48c2 -6 4 -12 5 -19l6 -30c3 -10 3 -24 3 -42c0 -9 1 -18 3 -27c2 -16 4 -32 4 -47l1 -35c1 -8 1 -15 1 -22 c0 -6 0 -12 -1 -17v-25c1 -15 3 -31 3 -47l-4 -46c-1 -14 3 -33 6 -58c2 -16 2 -31 2 -46c0 -167 -46 -216 -73 -219c-9 -1 -20 -2 -30 -2c-33 0 -69 10 -80 59c-2 12 -4 27 -6 47c1 14 2 30 6 48c3 26 0 56 4 107l4 65c3 40 6 86 12 145c1 7 1 16 1 26c0 16 -1 35 -4 56 c-3 13 -6 30 -6 49c0 33 8 71 32 103c3 5 6 10 11 14c-5 3 -9 6 -13 10c-12 12 -18 27 -18 44s6 31 18 43l16 15c10 10 21 21 34 32c16 15 30 25 42 31l10 5c9 5 18 7 28 7c6 0 13 -1 20 -3c16 -5 28 -15 36 -30z"></glyph><glyph glyph-name="lcaron" unicode="ľ" d="M366 697c34 0 62 -29 62 -62c0 -2 -1 -5 -1 -8l-1 -6l-3 -21c-1 -1 -1 -5 -1 -9l-22 -87l-3 -6c-9 -24 -32 -40 -58 -40c-38 0 -61 30 -61 61c0 7 2 14 4 21l10 42c0 10 10 25 11 44c1 5 1 8 1 10l1 6c5 30 31 55 61 55zM206 11c0 -13 -4 -25 -13 -36 c-12 -15 -28 -23 -48 -23c-14 0 -27 4 -38 13l-6 4c-7 6 -13 13 -18 20s-7 13 -8 16l-6 16l-10 35c-2 11 -4 30 -6 57c-2 26 -3 62 -3 108v403c0 17 6 31 18 43s27 18 44 18c9 0 19 -2 28 -7l13 8l7 3c8 4 17 6 26 6c6 0 13 -1 21 -3c14 -5 25 -13 25 -71c0 -9 0 -19 -1 -30 c-2 -14 -25 -575 -25 -580z"></glyph><glyph glyph-name="lcommaaccent" unicode="ļ" d="M208 1c-8 -24 -32 -43 -59 -43c-28 0 -52 19 -59 46c-31 5 -33 30 -33 61v8c0 13 2 28 3 41c1 3 1 8 1 13v196c0 28 6 101 13 185l6 74c1 12 3 23 4 33l2 12c5 30 12 52 42 52c3 0 6 -1 9 -1c5 -1 11 -3 16 -5c8 3 16 4 25 3c40 -1 55 -27 55 -70c0 -29 -2 -54 -2 -81 c0 -41 -1 -131 -4 -192c-6 -122 -10 -179 -12 -210zM134 -58c17 0 57 -21 57 -53c0 -10 -2 -22 -6 -34c-2 -6 -3 -7 -11 -32l-4 -18c-5 -16 -14 -28 -29 -37c-9 -6 -20 -8 -30 -8c-21 0 -42 11 -53 30c-6 10 -8 20 -8 31c0 5 0 10 1 15l3 23c1 10 16 39 17 39 c19 34 19 44 63 44z"></glyph><glyph glyph-name="ldot" unicode="ŀ" d="M50 25v120c0 19 4 42 4 80c0 43 3 68 3 86l-4 299c-1 5 -1 9 -1 13c0 9 2 18 6 27c13 22 23 34 47 34c27 0 48 -15 57 -34l4 -8c3 -8 9 -18 12 -32c24 0 36 -21 35 -51l-2 -259c0 -21 -1 -39 -1 -54c0 -14 1 -25 1 -33c0 -94 -7 -167 -23 -219c-7 -15 -19 -24 -34 -29 c-8 -3 -15 -4 -22 -4c-15 0 -29 6 -41 18c-24 0 -41 11 -41 46zM292 243c-15 6 -25 16 -31 31c-3 8 -4 15 -4 22c0 8 1 15 4 22c1 21 12 36 33 47c14 7 27 11 38 11c6 0 12 -1 17 -3c6 -1 11 -2 17 -5c13 -8 22 -19 26 -34c2 -6 3 -11 3 -17c0 -9 -3 -17 -8 -26l-4 -6 c-4 -7 -9 -14 -16 -21c-9 -8 -17 -13 -26 -18l-6 -3c-7 -3 -14 -4 -21 -4c-8 0 -15 1 -22 4z"></glyph><glyph glyph-name="lslash" unicode="ł" d="M142 703c9 21 25 33 48 36c3 1 7 1 10 1c12 0 24 -4 35 -12c14 -11 22 -24 24 -41l1 -7c1 -8 2 -16 2 -23v-174c5 2 11 2 16 2c6 0 12 -1 19 -2c11 -4 21 -11 29 -20c9 -11 14 -24 14 -38c0 -20 -8 -36 -22 -48l-6 -6l-22 -16c-6 -3 -15 -10 -28 -20l-4 -2 c-1 -15 -3 -34 -6 -59c-3 -29 -7 -60 -12 -94c-5 -33 -9 -57 -12 -70c-3 -11 -5 -25 -8 -41l-1 -7v-1l-1 -29l10 -11c3 -5 4 -9 4 -13c0 -15 -18 -28 -54 -38l-6 -2c-14 -4 -26 -5 -36 -5c-5 0 -10 0 -13 1c-12 3 -20 8 -25 15c-5 8 -7 16 -7 25c-1 2 -1 3 -1 5 c0 7 1 13 2 18l2 9c0 11 1 25 3 40l5 42c3 15 4 45 5 92v15h-1c-18 0 -32 4 -41 12c-9 7 -14 17 -14 28c-1 2 -1 3 -1 5c0 10 1 19 3 29c2 11 5 21 8 29l5 11c7 7 17 15 28 24l15 12c1 52 1 96 1 133v93c0 27 1 46 4 57l2 8c4 15 13 28 26 37z"></glyph><glyph glyph-name="m" unicode="m" d="M699 129c0 -11 2 -22 5 -34c1 -3 7 -26 7 -34c0 -31 -24 -61 -61 -61c-54 0 -71 57 -71 126c0 60 12 92 12 130s-2 77 -8 92c-5 11 -9 18 -14 22c-1 1 0 1 -10 1c-86 -12 -79 -222 -82 -298c0 -35 -15 -73 -83 -84c-33 -5 -50 24 -50 64v219c0 64 -30 104 -70 104 c-10 0 -20 -3 -31 -8c-4 -83 -15 -259 -18 -279c-1 -7 -1 -17 -1 -32v-38c0 -33 -29 -61 -62 -61c-28 0 -52 19 -59 46c-31 5 -53 26 -53 69c0 13 2 28 3 41l14 265c4 55 8 110 12 128c7 31 32 52 62 52c5 0 19 -3 25 -6c6 2 12 3 18 3c41 0 61 -19 62 -65 c24 13 52 19 77 19c26 0 49 -6 65 -15c26 -15 44 -30 57 -56c21 28 50 49 90 55c4 1 27 1 32 1c110 0 148 -113 148 -245c0 -52 -16 -84 -16 -121z"></glyph><glyph glyph-name="n" unicode="n" d="M494 301c1 -18 1 -40 1 -63c0 -61 -2 -132 -4 -180c-2 -35 -33 -58 -61 -58c-40 0 -64 32 -62 66c3 56 4 87 4 158c0 98 -5 137 -28 153c-17 -10 -56 -37 -111 -109c6 -83 8 -86 8 -114c0 -16 -1 -38 -2 -85l-11 -56c-13 -20 -31 -32 -54 -32c-38 0 -69 24 -79 62 c-4 17 1 -4 -15 55c-25 91 -30 162 -30 248c0 33 0 68 1 106c2 57 24 102 63 113c6 1 11 2 17 2c7 0 14 -1 21 -4c10 2 16 2 23 2c17 0 31 -6 44 -18c12 -12 18 -26 18 -43c0 -12 -3 -24 -11 -34c29 31 63 57 111 74c149 0 152 -68 157 -243z"></glyph><glyph glyph-name="nacute" unicode="ń" d="M331 595c-17 0 -31 6 -43 19c-13 12 -19 26 -19 43v8c0 7 1 13 2 19l4 14c1 3 4 7 7 12l6 9l13 13l18 20l6 9c12 17 29 26 51 26c12 0 24 -4 35 -11c16 -12 26 -30 26 -52c0 -12 -4 -23 -11 -34l-7 -9c-5 -7 -14 -18 -27 -32c-2 -15 -9 -27 -20 -38 c-12 -11 -26 -16 -41 -16zM53 448c-2 15 -3 26 -3 33v19c0 35 27 59 61 62c6 0 13 1 18 1c66 0 84 -31 84 -63c0 -23 10 -97 12 -134c45 96 98 186 188 186c111 0 141 -110 141 -284c0 -83 -15 -153 -15 -206c0 -39 -18 -58 -42 -58c-5 0 -11 1 -17 3c-6 -1 -11 -1 -16 -1 c-36 0 -54 22 -50 56c6 62 9 146 9 217c0 66 -3 122 -9 144c-112 -86 -174 -231 -174 -366c0 -34 -29 -61 -62 -61c-73 0 -101 28 -101 61v14c-7 44 -13 96 -13 139c0 0 0 101 -1 124c-1 49 -6 89 -10 114z"></glyph><glyph glyph-name="ncaron" unicode="ň" d="M191 670c-10 14 -18 27 -24 39c-11 19 -16 37 -16 54c0 6 1 12 2 18l3 7l9 15c4 7 10 13 16 17s13 7 23 10c3 1 7 1 11 1c6 0 13 -1 21 -4c6 -2 11 -5 15 -7s8 -5 11 -8l6 -7c2 -2 3 -4 4 -6l3 -5c4 -8 8 -15 12 -22l14 -24l6 14l7 18c6 15 17 26 33 33c8 4 17 6 25 6 c7 0 15 -1 22 -5c15 -6 26 -17 33 -33c4 -8 6 -16 6 -24c0 -7 -2 -15 -5 -23l-7 -17c-5 -13 -10 -25 -16 -36l-14 -29c-7 -15 -14 -27 -21 -36c-18 -22 -38 -32 -62 -32c-8 0 -15 0 -23 2c-8 1 -14 3 -19 5c-21 8 -38 25 -53 49c-8 10 -16 20 -22 30zM361 504 c117 0 148 -120 151 -281v-168c0 -33 -27 -61 -61 -61c-23 0 -40 10 -52 29c-24 0 -31 33 -31 73c0 45 9 99 9 119c-3 109 -12 136 -39 140c-55 0 -56 0 -81 -6c-6 -8 -13 -14 -22 -19c1 -144 3 -142 3 -176c0 -16 -1 -38 -2 -85l-11 -56c-13 -20 -31 -32 -54 -32 c-76 0 -86 51 -94 117c-14 127 -20 182 -20 272c0 24 0 51 1 82c-6 17 -8 32 -8 46c0 40 24 66 71 67c6 0 11 2 17 2c7 0 14 -1 21 -4c10 2 16 2 23 2c17 0 31 -6 44 -18c12 -12 18 -26 18 -43c0 -8 -1 -16 -5 -23c5 3 10 5 15 6c56 15 54 17 107 17z"></glyph><glyph glyph-name="ncommaaccent" unicode="ņ" d="M512 220c3 -53 9 -128 9 -151v-16c0 -35 -29 -62 -62 -62c-17 0 -40 8 -52 20s-18 27 -18 44v16c0 20 -6 274 -22 295c-24 31 -35 41 -79 41c-10 0 -22 0 -35 -1h-1c-10 0 -20 0 -30 -1c1 -10 1 -18 2 -25c1 -13 36 -233 36 -300c0 -35 -27 -62 -62 -62h-1 c-9 -23 -33 -38 -57 -38c-29 0 -56 22 -61 50c-3 7 -4 15 -4 23v16c0 20 -25 427 -25 451v17c0 33 29 62 62 62c29 0 55 -23 60 -51c21 4 58 8 86 10c12 1 23 2 34 2c166 0 212 -132 212 -163v-17c0 -23 1 -34 2 -54l3 -45zM339 8c16 -5 28 -15 36 -30c4 -9 6 -17 6 -26 c0 -7 -1 -13 -3 -20c-5 -17 -15 -29 -30 -37l-10 -5c-3 -2 -9 -6 -16 -13c-11 -11 -22 -21 -32 -30l-15 -15c-11 -10 -24 -16 -39 -16c-19 0 -35 5 -47 18c-12 12 -18 27 -18 44s6 31 18 43l16 15c10 10 21 21 34 32c16 15 30 25 42 31l10 5c9 5 18 7 28 7c6 0 13 -1 20 -3z "></glyph><glyph glyph-name="eng" unicode="ŋ" d="M495 254c0 -209 -15 -284 -19 -291c-5 -11 -3 -12 -6 -19c-18 -41 -32 -68 -51 -89c-23 -24 -45 -38 -74 -43l-12 -2c-28 -3 -80 16 -69 13l-14 5c-27 7 -45 33 -45 60c0 35 30 60 62 60c5 0 11 -1 16 -2l15 -4c1 -1 3 -1 4 -1s1 0 2 1c3 2 6 6 10 12 c42 46 54 135 58 244v26c0 98 -5 137 -28 153c-17 -10 -56 -37 -111 -109c6 -63 8 -66 8 -94c0 -16 -1 -38 -2 -85l-11 -56c-13 -20 -31 -32 -54 -32c-38 0 -69 24 -79 62c-4 17 1 -4 -15 55c-25 91 -30 142 -30 228c0 33 0 68 1 106c2 57 24 102 63 113c6 1 11 2 17 2 c7 0 14 -1 21 -4c10 2 16 2 23 2c17 0 31 -6 44 -18c12 -12 18 -26 18 -43c0 -12 -3 -24 -11 -34c29 31 63 57 111 74c156 0 158 -82 158 -290z"></glyph><glyph glyph-name="ntilde" unicode="ñ" d="M127 715l-3 6c-6 13 -9 26 -9 40v24c1 20 5 37 13 52c1 2 2 3 2 4c3 11 10 22 21 33c12 14 28 21 49 21c12 0 25 -3 39 -9c17 -7 34 -21 52 -41l4 -5c0 1 0 1 -1 2c-2 11 -4 21 -7 29l-9 28c-2 8 -4 16 -5 24l-1 8c-1 4 -1 7 -1 11c0 12 4 24 13 35c12 15 27 25 48 25 c14 -1 26 -5 38 -13c13 -11 21 -24 23 -40l2 -8c0 -3 0 -5 1 -8l7 -21c5 -14 9 -30 12 -47c3 -19 5 -35 5 -50s-2 -32 -6 -53s-8 -36 -13 -46c-5 -12 -14 -22 -26 -31c2 0 -16 -14 -40 -14h-1c-13 0 -26 3 -41 10c-13 5 -24 11 -35 20c-6 5 -12 10 -19 17 c-6 -15 -16 -26 -30 -33c-8 -4 -16 -5 -24 -5s-15 1 -23 4c-16 5 -28 16 -35 31zM469 86c2 -17 -2 -32 -13 -45c-12 -16 -29 -24 -49 -24c-13 0 -26 4 -37 13c-13 11 -27 24 -30 41l-1 8l-2 33c-1 9 -12 209 -12 228c0 47 1 60 -25 60c-25 0 -59 -37 -87 -88 c3 -106 10 -134 11 -138c4 -18 6 -35 7 -51l1 -18c1 -12 -2 -23 -9 -34l3 -7c1 -4 3 -8 5 -11l3 -6c4 -9 6 -18 6 -27c0 -7 -1 -13 -3 -20c-5 -16 -16 -28 -31 -36c-8 -4 -17 -6 -26 -6c-7 0 -14 1 -21 3c-16 6 -28 16 -35 31l-3 6c-3 5 -5 11 -8 17l-9 21 c-4 11 -9 26 -15 47c-6 20 -12 42 -17 66c-12 49 -22 96 -22 152c0 46 2 90 6 133c3 32 4 51 4 58v3l-4 11c-3 7 -4 14 -4 21c0 8 2 17 6 26c7 15 19 26 35 32c7 2 14 3 21 3c9 0 17 -2 26 -6c15 -7 26 -19 32 -35l4 -11l2 -6c15 -9 25 -21 29 -35c33 36 108 46 150 46 c49 0 61 -14 67 -21c13 -13 21 -27 24 -40s4 -27 5 -44c1 -13 3 -46 5 -98c1 -29 7 -207 8 -220l1 -24z"></glyph><glyph glyph-name="o" unicode="o" d="M224 14c13 -9 35 -14 53 -14c103 0 155 98 158 249c3 38 6 64 6 116c0 18 0 33 -1 43c-7 86 -88 145 -183 145c-73 0 -120 -29 -142 -75c-35 -54 -65 -140 -65 -190c0 -75 19 -128 61 -192c20 -37 74 -85 113 -82zM263 429c29 0 42 -10 54 -29c1 -11 1 -18 1 -69 c0 -80 -12 -166 -31 -199c-32 23 -45 59 -47 90c-1 27 -2 60 -2 97c0 135 25 110 25 110z"></glyph><glyph glyph-name="oacute" unicode="ó" d="M304 553c-17 0 -31 6 -43 18c-13 12 -19 26 -19 43v9c0 28 14 51 43 70c9 5 24 16 46 33l34 26c11 8 23 12 36 12c22 0 38 -8 50 -24c8 -11 12 -23 12 -36c0 -22 -8 -38 -24 -50l-34 -26c-17 -13 -31 -24 -42 -31c-4 -13 -11 -24 -22 -32s-24 -12 -37 -12zM408 124 c3 -8 4 -15 4 -22c0 -14 -5 -27 -15 -39l-9 -9c-8 -9 -21 -21 -39 -35c-24 -18 -50 -29 -78 -33c-11 -2 -22 -3 -33 -3c-13 0 -25 1 -36 4c-19 5 -35 10 -47 17c-75 39 -105 147 -105 245c0 133 31 239 99 279l8 5c7 5 15 7 24 8c11 9 24 13 37 13h13l32 -1l36 -3 c20 -2 42 -8 66 -19c25 -12 45 -26 59 -43c17 -21 25 -42 25 -63v-82c0 -51 -11 -150 -26 -187c-3 -11 -8 -21 -15 -32zM269 429l-2 -24c-1 11 0 -115 1 -161c1 -44 3 -72 4 -85l2 -11l6 8c15 19 25 33 28 42c4 11 8 30 11 59c5 31 7 59 7 86v69c-3 3 -8 5 -13 7 c-11 5 -19 7 -25 8z"></glyph><glyph glyph-name="ocircumflex" unicode="ô" d="M196 564c-18 0 -33 7 -46 20c-12 12 -18 27 -17 44v10c1 15 6 33 15 54c7 17 14 31 21 43c5 9 10 20 15 33c8 18 15 32 22 43c17 27 40 42 69 42c25 0 48 -13 67 -37c12 -15 21 -32 27 -50l15 -56c7 -27 12 -49 15 -65l3 -22l2 -6c2 -6 3 -12 3 -19c0 -9 -2 -19 -7 -28 c-9 -15 -21 -25 -37 -30c-6 -2 -12 -2 -17 -2s-9 0 -14 1l19 -8c78 -39 93 -125 93 -188s-12 -122 -40 -174c-7 -14 -14 -26 -20 -35c5 -10 7 -20 7 -29c0 -12 -4 -23 -11 -34l-12 -16c-12 -17 -28 -33 -49 -46c-23 -15 -47 -23 -74 -23c-35 0 -66 13 -93 37 c-78 65 -102 132 -102 236c0 48 11 111 28 158c11 29 18 47 23 56l12 22l7 14c6 11 14 19 25 25c11 5 22 8 34 7l10 5c11 7 22 11 35 11h22l17 1c15 1 31 -2 47 -9c-11 8 -19 19 -24 32l-2 7c-2 7 -4 20 -7 39c-1 9 -4 21 -7 36l-9 -19l-5 -13v-7c-1 -17 -7 -31 -19 -43 c-12 -11 -26 -17 -41 -17zM261 435c-4 -27 -7 -67 -7 -107c0 -47 4 -92 12 -114l9 -23l21 36c12 23 20 48 23 75c1 11 -6 73 -16 97c-4 10 -7 18 -10 23l-24 11c-2 1 -4 1 -5 2h-3z"></glyph><glyph glyph-name="odieresis" unicode="ö" d="M393 697c5 -2 10 -4 15 -7l8 -5l7 -12c3 -5 6 -13 10 -26s6 -24 7 -34v-1c0 -10 -4 -19 -11 -28c-9 -11 -24 -19 -45 -19c-12 0 -25 3 -40 8l-5 2c-2 1 -6 2 -11 5s-10 5 -13 8l-12 12c-5 5 -9 10 -10 16l-4 20c-1 2 -1 4 -1 6c0 6 1 12 4 18l2 7c5 16 15 28 30 37 c9 5 19 8 29 8c6 0 11 -1 17 -3c8 -2 16 -6 23 -12zM125 678c12 11 27 17 44 17s31 -6 43 -18l3 -3c12 -11 18 -26 18 -43s-6 -32 -18 -43c-12 -12 -26 -18 -43 -18s-32 6 -44 17l-3 4c-12 11 -18 26 -18 43s6 32 18 44zM204 538c17 10 37 15 58 15c9 0 20 1 33 2 c5 0 10 1 14 1c27 0 50 -9 69 -25c17 -15 30 -34 39 -59c12 -30 18 -70 18 -113c0 -146 -67 -336 -187 -360c-14 -3 -26 -4 -37 -4c-9 0 -16 1 -23 2c-25 6 -46 23 -64 51c-54 90 -74 207 -74 293c0 32 2 59 7 79c4 19 6 35 9 47l4 16c4 16 14 28 29 37c10 6 20 9 31 9 c5 0 10 -1 15 -2c8 -2 15 -6 22 -11c10 12 22 19 37 22zM230 431c-9 -28 -13 -61 -13 -95c0 -66 16 -134 47 -168c27 55 43 151 43 213c0 22 -2 39 -6 49l-1 2c-13 -1 -61 -1 -70 -1z"></glyph><glyph glyph-name="ograve" unicode="ò" d="M325 605c-7 -15 -18 -26 -33 -33c-9 -4 -17 -6 -24 -6c-8 0 -16 2 -23 5l-9 3l-28 12c-12 6 -24 11 -35 16l-29 13c-11 5 -22 10 -31 16l-12 6c-15 9 -24 21 -28 38c-2 5 -3 11 -3 16c0 10 3 20 9 30c8 15 20 24 37 29c5 2 11 2 16 2c11 0 20 -2 30 -8l12 -7l18 -8 c9 -4 20 -9 32 -15l35 -16c10 -5 17 -8 22 -10l9 -3c16 -6 27 -17 34 -33c3 -8 5 -16 5 -24s-1 -16 -4 -23zM214 517l8 7c4 4 7 7 9 8l9 7c4 3 8 5 11 6l13 4l16 3c4 0 8 1 14 1c10 0 24 -1 40 -3c11 -1 21 -3 28 -4s15 -5 26 -10c11 -6 20 -14 28 -24 c32 -41 61 -130 61 -222c0 -70 -17 -143 -62 -198l-17 -21c-3 -19 -12 -33 -27 -42l-19 -12c-23 -15 -44 -22 -64 -22h-25c-11 1 -21 3 -30 7c-132 34 -183 144 -183 252c0 46 7 134 38 197l12 27c7 15 19 25 36 31c7 3 14 4 21 4c9 0 18 -2 26 -6l4 -3c8 6 17 10 27 13z M272 402c-5 -41 -11 -102 -11 -158c0 -51 5 -98 21 -121c9 9 20 24 35 44c12 40 17 80 17 117c0 80 -23 142 -33 146l-10 -9l-18 -18z"></glyph><glyph glyph-name="ohungarumlaut" unicode="ő" d="M167 612c-15 8 -24 20 -29 37c-2 6 -2 12 -2 17c0 11 2 20 8 30l5 9c5 11 15 23 28 37c11 11 21 22 32 32s22 18 31 25l11 9c11 8 23 12 36 12c22 0 38 -8 51 -24c8 -11 12 -23 12 -36c0 -22 -8 -38 -24 -50l-12 -9l-21 -18c-9 -7 -17 -16 -26 -26c-5 -5 -9 -9 -11 -12 l-5 -9c-8 -15 -20 -24 -37 -29c-6 -2 -12 -3 -18 -3c-10 0 -20 3 -29 8zM300 589c-9 11 -14 23 -14 38c0 20 8 36 22 48l12 9l26 22c15 14 30 24 44 29l13 6l8 5c9 5 19 8 29 8c6 0 11 -1 18 -3c16 -5 28 -14 37 -29c5 -9 7 -19 7 -28c0 -6 -1 -12 -2 -18 c-5 -17 -15 -29 -30 -38l-8 -4c-7 -4 -15 -8 -24 -12c-3 -1 -6 -4 -11 -8l-29 -25l-12 -9c-11 -9 -24 -14 -38 -14c-20 0 -36 8 -48 23zM377 298c11 -13 15 -32 15 -54c0 -36 -10 -80 -20 -126l-3 -12c-1 -7 -2 -11 -2 -13l-3 -11c-1 -5 -2 -8 -3 -11l-4 -10 c-2 -4 -4 -8 -5 -11c-2 -3 -4 -6 -7 -9c-7 -11 -15 -19 -26 -26c-11 -6 -19 -10 -25 -12l-27 -5c-9 -1 -19 -2 -28 -2c-20 0 -41 4 -60 11c-27 11 -50 27 -71 50c-19 21 -33 44 -42 68c-12 29 -16 73 -16 122c0 91 17 198 38 261c12 38 31 63 58 75c20 8 39 11 57 10 c9 -1 21 -3 36 -6c23 -4 45 -15 64 -32c16 -13 30 -29 41 -46c12 -18 20 -37 25 -57c5 -18 7 -40 7 -66zM232 454c-32 -32 -35 -93 -35 -163c0 -64 1 -117 32 -154c21 51 36 91 36 211c0 23 -2 44 -6 59c-1 7 -4 12 -9 20z"></glyph><glyph glyph-name="omacron" unicode="ō" d="M115 688c0 13 4 24 12 35c10 14 23 23 40 26l12 2c10 2 25 4 46 5c17 1 33 3 46 5c17 2 31 3 42 3l22 1l16 1c17 1 32 -5 45 -16c14 -12 21 -28 21 -46c0 -15 -6 -29 -16 -40c-11 -13 -25 -20 -42 -21l-17 -1l-32 -1l-22 -2c-16 -3 -34 -5 -54 -6l-34 -3l-12 -2 c-4 -1 -8 -1 -13 -1c-11 0 -23 3 -33 11c-17 11 -27 28 -27 50zM152 39c-4 -1 -9 -1 -13 -1c-9 0 -18 2 -27 6c-13 6 -22 15 -28 27l-6 12c-19 44 -28 92 -28 119c0 109 27 200 65 283c13 30 32 51 57 63c18 9 35 13 49 13c10 0 24 -2 41 -8c14 -4 28 -7 43 -17 c78 -51 117 -123 117 -207c0 -86 -40 -185 -122 -290c-6 -7 -9 -12 -12 -15s-9 -7 -17 -11s-17 -7 -27 -9c-7 -1 -13 -2 -19 -2c-8 0 -15 1 -22 3c-13 3 -25 10 -37 20c-5 4 -10 9 -14 14zM242 430c-9 -58 -13 -116 -13 -175c0 -35 2 -69 3 -105c50 65 76 117 76 169 c0 22 -5 45 -15 68c-4 5 -11 13 -21 22c-9 9 -17 15 -24 18z"></glyph><glyph glyph-name="oslash" unicode="ø" d="M504 574c4 -8 6 -17 6 -26c0 -7 -1 -14 -4 -21c-6 -16 -16 -27 -31 -35c-1 0 -3 -2 -5 -6l-6 -14c-2 -7 -3 -11 -4 -13l-32 -68c-3 -6 -6 -14 -9 -22l2 -8c27 -45 45 -100 45 -156c0 -60 -21 -121 -76 -172c-16 -15 -32 -27 -50 -38c-24 -13 -47 -20 -69 -20 c-16 0 -28 1 -37 3c-7 1 -13 2 -19 5l-3 -5l-2 -7c-5 -16 -15 -28 -30 -37c-9 -5 -19 -8 -29 -8c-6 0 -11 1 -17 3c-16 5 -28 14 -37 29c-5 10 -8 20 -8 30c0 6 1 11 3 17l2 7c2 9 7 19 13 30v1c-12 11 -23 26 -32 44c-17 34 -25 82 -25 132c0 72 16 151 40 208 c6 17 13 34 21 50c9 20 18 36 28 48l10 12c8 11 18 18 31 22c6 1 12 2 18 2s13 -1 19 -3c9 3 18 4 27 4c8 0 16 -1 24 -3c12 -3 21 -6 28 -9c14 -5 28 -15 41 -31l7 -8c7 18 20 36 25 45c10 20 24 34 43 43l10 4c9 4 17 6 26 6c7 0 14 -1 21 -3c16 -6 28 -16 35 -32z M265 412c-17 0 -36 -6 -46 -25c-35 -67 -51 -118 -51 -179c0 -17 1 -34 3 -52l116 215c-1 1 -1 2 -1 2zM262 94c6 -1 13 -2 19 -2c47 0 74 43 74 97c0 13 -1 26 -4 39c-22 -44 -87 -129 -89 -134z"></glyph><glyph glyph-name="oe" unicode="œ" d="M636 139c38 0 63 -28 63 -60c0 -52 -66 -85 -120 -85c-14 0 -43 3 -44 3c-9 -5 -20 -8 -31 -8c-30 0 -94 9 -133 32c-27 -14 -114 -20 -138 -15c-8 -3 -16 -6 -24 -6c-111 0 -179 71 -179 239c1 31 4 56 8 74c31 139 81 226 150 233c15 7 34 10 55 10 c53 0 110 -20 148 -42c30 21 65 43 113 42c114 -2 166 -91 166 -196c0 -77 -15 -127 -82 -127l-129 1c5 -78 46 -117 127 -117c10 10 33 22 50 22zM504 442c-24 -1 -38 -32 -43 -85l86 -1c0 57 -15 86 -43 86zM321 271c-1 11 14 103 14 97c0 14 -5 26 -9 36 c-27 23 -38 29 -85 29c-47 -47 -58 -159 -58 -224c0 -43 32 -70 64 -81h15c23 10 59 33 59 45c1 74 1 90 0 98z"></glyph><glyph glyph-name="p" unicode="p" d="M442 304c3 -15 4 -40 4 -66c0 -35 -3 -71 -9 -88c-35 -92 -124 -147 -228 -184c-2 -57 -5 -103 -9 -129c-6 -37 -20 -61 -64 -61c-47 0 -63 62 -75 140c-5 32 -11 265 -11 372c0 80 27 197 71 244c15 17 38 27 62 27c17 0 42 -19 52 -35c2 1 5 1 9 1c3 0 6 0 8 -1 c106 -43 170 -102 190 -220zM311 212c1 15 1 36 1 55s0 37 -2 44c-12 52 -60 77 -82 89c-10 -45 -15 -112 -15 -169c0 -43 0 -88 -1 -132c74 32 97 79 99 113z"></glyph><glyph glyph-name="thorn" unicode="þ" d="M471 313c8 -27 12 -51 12 -73c0 -12 -2 -23 -4 -33c-5 -25 -14 -48 -26 -67c-11 -17 -21 -31 -32 -42c-11 -10 -25 -21 -42 -32s-34 -20 -52 -28l-69 -27l-2 -24l-3 -68c-1 -9 -1 -19 -2 -29l-1 -15c-1 -15 -8 -29 -20 -40s-26 -16 -41 -16c-8 -10 -18 -17 -29 -21 c-7 -2 -13 -3 -20 -3c-9 0 -18 2 -27 6c-15 7 -26 19 -31 35l-3 9l-8 22c-3 11 -7 36 -12 76c-4 38 -7 75 -8 110l-1 72v80l1 150c1 62 3 106 6 133l12 86c6 39 13 67 20 83l7 16c7 15 18 25 35 32c7 2 14 4 22 4s16 -2 24 -6c13 -5 22 -14 29 -27l7 1c20 0 36 -9 48 -24 c11 -13 15 -28 13 -45l-1 -6v-12c-1 -6 -1 -26 -1 -61v-10c16 -11 42 -30 53 -36c16 -7 33 -18 50 -33c15 -12 31 -26 46 -42c21 -21 38 -53 50 -95zM359 233c2 9 0 24 -6 46s-13 35 -19 43c-20 27 -44 44 -64 55l-2 -96l-4 -135l48 23c12 6 18 12 22 17c4 4 9 10 15 19 c4 7 7 17 10 28z"></glyph><glyph glyph-name="q" unicode="q" d="M465 563c22 -1 27 -17 27 -37c0 -9 -1 -19 -2 -29c-10 -196 -10 -203 -10 -207c-1 -28 -1 -105 -5 -186c-11 -172 -11 -167 -16 -261c-2 -35 -26 -59 -54 -59c-11 0 -23 4 -34 12c-8 -3 -16 -4 -22 -4c-27 0 -41 22 -39 53l8 157c-6 -1 -13 -2 -20 -2c-35 0 -56 2 -74 14 c-16 -1 -27 3 -48 16c-74 46 -126 127 -126 228c0 47 7 81 28 153c17 56 48 122 102 149c18 10 44 14 70 14c30 0 61 -6 84 -15c9 -3 18 -7 26 -11c10 21 32 36 56 36c3 0 6 -1 9 -1c14 -3 25 -9 36 -20h4zM287 134c0 -3 28 6 38 10l9 175l4 64c0 6 1 12 1 20 c-16 19 -42 43 -64 45c-3 1 -7 1 -12 1c0 0 -39 6 -39 -112c0 -36 1 -70 2 -97c3 -43 29 -93 61 -106z"></glyph><glyph glyph-name="r" unicode="r" d="M467 505c3 -8 4 -17 4 -24c0 -28 -17 -50 -42 -59c-62 -21 -131 -82 -204 -179c-6 -86 -13 -126 -35 -209c-7 -30 -35 -47 -59 -47c-31 0 -57 23 -62 54c-15 21 -18 56 -18 79c0 55 4 181 4 197l-4 163c-3 48 16 84 55 84c20 0 27 0 36 -1c19 -1 35 -5 48 -12 c30 -16 35 -74 35 -107c27 41 64 87 119 105c15 5 30 8 44 8c38 0 72 -18 79 -52z"></glyph><glyph glyph-name="racute" unicode="ŕ" d="M151 623c-16 11 -25 29 -25 51c0 12 4 24 12 34l5 7c6 9 14 17 23 24c4 3 12 11 23 24c15 15 26 27 33 36l12 14c12 14 28 22 47 22c15 0 28 -4 40 -14c14 -12 21 -27 21 -46c0 -15 -4 -29 -14 -41l-12 -14c-9 -11 -21 -24 -37 -41c-17 -19 -29 -31 -36 -36h-1l-5 -7 c-13 -18 -33 -23 -50 -23c-18 0 -33 5 -30 6c-2 1 -4 2 -6 4zM419 547c4 -9 6 -18 6 -27s-2 -18 -5 -27c-7 -15 -19 -26 -35 -33l-18 -7c-55 -24 -102 -69 -104 -120v-40c0 -12 0 -23 1 -33c0 -8 1 -17 1 -28c0 -15 -1 -33 -2 -53l-1 -57c0 -11 -1 -25 -3 -40l-2 -21 c-1 -15 -8 -28 -21 -39c-12 -11 -26 -16 -41 -16c-13 -17 -30 -25 -52 -25c-14 0 -27 4 -37 13c-14 11 -21 24 -23 41l-6 56l-8 88c-4 49 -8 83 -9 100l-7 70c-2 31 -3 59 -3 84v10l1 17c0 4 1 10 3 17c2 8 4 14 7 20c3 5 8 11 15 16c7 6 15 12 25 14c8 1 15 2 22 2 c49 0 63 -33 67 -69c20 47 57 82 134 109l20 7c7 3 14 5 21 5c8 0 16 -2 26 -6c12 -6 21 -17 28 -28z"></glyph><glyph glyph-name="rcaron" unicode="ř" d="M177 705l-6 12c-9 18 -15 36 -16 53c1 3 4 7 7 12c3 4 9 11 18 21s18 17 27 22c5 3 12 5 19 5c4 0 8 -1 12 -1c11 -3 22 -11 32 -25l3 10l11 32l5 14c5 16 16 28 31 36c9 4 18 6 27 6c6 0 13 -1 20 -3c16 -6 28 -17 35 -32c4 -9 6 -18 6 -27c0 -7 -1 -13 -3 -20l-5 -14 l-9 -29c-3 -9 -6 -17 -10 -26l-39 -102c-2 -15 -9 -27 -20 -38c-12 -11 -26 -16 -41 -16c-17 0 -31 6 -43 19c-10 9 -16 20 -18 32c-18 18 -33 37 -43 59zM478 503c3 -11 5 -21 5 -29c0 -29 -20 -45 -69 -51c-112 -86 -174 -231 -174 -366c0 -34 -29 -61 -62 -61 c-73 0 -101 28 -101 61v14c-7 44 -13 96 -13 139c0 0 0 101 -1 124c-1 49 -6 89 -10 114c-2 15 -3 26 -3 33v19c0 35 27 59 61 62c6 0 13 1 18 1c66 0 84 -31 84 -63c0 -23 10 -97 12 -134c45 96 85 167 188 186c6 1 12 1 17 1c28 0 45 -13 48 -33c0 -5 1 -11 0 -17z"></glyph><glyph glyph-name="rcommaaccent" unicode="ŗ" d="M258 63c0 295 110 363 146 383c19 12 29 32 29 53c0 11 -3 23 -10 33c-12 17 -31 23 -51 23c-12 0 -26 -2 -39 -5c-55 -12 -120 -86 -142 -223c-2 131 -9 207 -56 207c-57 0 -85 -12 -85 -60c0 -122 8 -196 35 -412c6 -49 56 -62 98 -62c38 0 75 7 75 63zM185 -45 c37 0 57 -21 57 -53c0 -10 -2 -22 -6 -34c-2 -6 -3 -7 -11 -32l-4 -18c-5 -16 -14 -28 -29 -37c-9 -6 -20 -8 -30 -8c-21 0 -42 11 -53 30c-6 10 -8 20 -8 31c0 5 0 10 1 15l3 23c1 10 16 39 17 39c19 34 39 44 63 44z"></glyph><glyph glyph-name="s" unicode="s" d="M184 3c73 9 103 60 103 131c0 186 -88 201 -88 293c0 1 0 3 1 5c7 1 8 1 48 1c33 0 61 29 61 62s-28 61 -61 61c-31 0 -47 -1 -63 -2c-7 2 -14 3 -22 3c-54 0 -113 -60 -113 -108c0 -122 83 -267 83 -317c0 -4 -1 -7 -2 -11l-10 -1c-35 -4 -56 -34 -56 -62 c0 -44 31 -59 75 -59c14 0 29 2 44 4z"></glyph><glyph glyph-name="sacute" unicode="ś" d="M129 513c-17 0 -32 6 -44 18s-18 26 -18 43v10c0 7 1 13 2 18l3 14c1 4 3 8 6 13l7 9c1 2 4 5 7 10l7 8c13 16 23 29 31 40c8 9 15 19 22 29l12 16c11 16 28 25 50 25c13 0 25 -4 36 -11c16 -12 25 -29 25 -51c0 -13 -4 -24 -12 -35l-11 -16c-8 -11 -17 -23 -26 -34 l-30 -39c-3 -3 -5 -5 -6 -7c-1 -17 -7 -32 -20 -44c3 1 5 3 7 5c7 5 15 9 23 12l7 3c7 3 15 4 22 4c8 0 16 -1 25 -5c15 -7 26 -18 33 -33c3 -8 4 -15 4 -23s-2 -16 -5 -24c-7 -16 -19 -27 -34 -34l-5 -2c3 -6 5 -13 6 -20c1 -13 -2 -26 -9 -37c-7 -12 -17 -21 -28 -26 l-3 -9v-8c0 -57 83 -55 83 -193c0 -73 -88 -157 -152 -157c-21 0 -44 14 -54 34c-18 11 -27 35 -27 50c0 23 10 40 27 51c20 14 27 19 27 44c0 107 -67 86 -67 201c0 40 9 55 19 71c9 15 21 29 34 42c11 11 22 21 33 30l17 13c-8 -3 -16 -5 -24 -5z"></glyph><glyph glyph-name="scaron" unicode="š" d="M70 71c0 24 10 41 29 53c10 6 21 9 32 9c5 0 10 -1 15 -2l8 -2l2 -1h31l1 7c1 7 1 13 1 19c0 83 -74 144 -100 200c-8 17 -12 35 -12 51c0 27 12 53 35 78c15 15 29 25 44 32c-10 4 -18 10 -25 18l-8 8l-18 24c-5 7 -10 12 -13 16l-14 15c-7 7 -12 13 -17 20 s-11 23 -11 39c0 34 28 46 57 50c23 3 49 -11 50 -12l27 -27c3 11 4 18 4 23c1 8 2 17 4 26l2 12c3 17 12 30 26 40c11 7 22 11 34 11c22 0 39 -10 51 -27c8 -11 11 -22 11 -34c0 -4 0 -8 -1 -12l-2 -11c-1 -7 -2 -12 -2 -17l-6 -33c-3 -15 -5 -26 -8 -34 c-3 -9 -8 -19 -15 -30c-12 -21 -30 -36 -54 -43l-3 -3h5l11 2c16 2 31 -2 45 -12c16 -12 25 -29 25 -49c-1 -13 -5 -25 -13 -36c-10 -14 -23 -22 -39 -25c68 -120 106 -168 106 -268v-42c0 -23 -9 -44 -27 -63c-10 -11 -21 -20 -34 -27c-15 -9 -30 -16 -45 -19 c-12 -3 -23 -4 -32 -4h-21c-15 0 -28 5 -39 14h-11c-10 0 -20 1 -31 4l-8 2c-17 4 -29 13 -38 28c-6 10 -9 21 -9 32z"></glyph><glyph glyph-name="scedilla" unicode="ş" d="M309 171c3 -13 4 -24 5 -33v-18c0 -12 -2 -24 -6 -36c-10 -30 -34 -54 -75 -75c29 -16 55 -43 59 -79c1 -9 2 -18 2 -26c0 -61 -33 -94 -104 -94c-46 0 -74 31 -74 67c0 14 6 30 28 47v2c-16 12 -25 27 -27 43c-7 0 -14 1 -20 2c-14 3 -26 10 -35 21c-8 11 -12 23 -12 37 c0 21 8 38 23 50l11 9c10 8 20 15 31 21l12 7c0 3 -1 8 -4 15c-25 55 -42 114 -53 179c-2 15 -3 28 -3 40v32c0 16 1 29 4 39l12 30c5 11 13 25 23 40c11 17 22 30 33 39c9 8 19 15 28 20l9 5c9 5 18 7 28 7c6 0 12 -1 19 -2c16 -5 28 -15 37 -30c5 -9 7 -19 7 -28 c0 -6 -1 -12 -2 -18c-5 -17 -15 -29 -30 -37l-9 -5l-7 -5c0 -1 0 -1 -1 -2c3 -7 4 -14 4 -22c0 -4 0 -8 -1 -12l-3 -15c13 -39 30 -79 53 -118c7 -14 14 -27 19 -39l12 -32c2 -6 4 -15 7 -26z"></glyph><glyph glyph-name="scircumflex" unicode="ŝ" d="M157 541c-17 0 -31 6 -43 18c-13 12 -19 26 -19 43v19c0 13 0 24 1 32c0 10 1 21 3 34c2 15 5 27 8 37l7 17c13 30 38 46 76 46c18 0 36 -6 53 -17c14 -9 28 -21 42 -37l22 -24c5 -5 11 -12 19 -21l18 -19l6 -7c11 -11 17 -25 17 -41c0 -19 -6 -34 -19 -46 c-12 -11 -26 -17 -43 -17c-18 0 -32 7 -44 19l-6 7l-19 20c-8 9 -14 15 -18 19v-21c0 -23 -10 -40 -30 -52c3 0 5 0 7 1c8 3 16 5 25 5h83c17 0 31 -6 43 -18s18 -26 18 -43s-6 -31 -18 -43c-12 -13 -26 -19 -43 -19h-43l-3 -18c-1 -11 -3 -24 -3 -41c0 -58 44 -114 62 -154 l8 -18c3 -7 7 -16 12 -25c8 -17 12 -34 12 -51v-22c0 -22 -7 -42 -22 -59c-11 -13 -23 -23 -38 -30c-3 -1 -7 -3 -10 -6c-8 -6 -18 -12 -29 -18c-26 -14 -43 -20 -46 -19l-10 -5c-14 -7 -27 -12 -40 -15c-10 -3 -18 -4 -25 -5l-7 -2c-17 -2 -32 2 -46 12 c-16 12 -25 28 -25 49c0 13 4 25 12 37c10 13 23 21 40 24l8 1l14 3c3 1 8 3 14 6l2 1c4 5 9 10 15 15l3 10c-1 5 -2 10 -4 16c-5 16 -10 33 -17 52c-38 105 -42 150 -47 182c-3 18 -4 31 -3 40v24c0 28 11 56 33 83l9 11c3 5 6 8 8 11s5 6 10 10c5 3 10 6 16 9h-6z"></glyph><glyph glyph-name="scommaaccent" unicode="ș" d="M50 43c0 17 6 31 18 43s27 18 44 18h9c2 0 6 1 12 2c3 1 7 2 12 4l21 12c3 1 8 5 14 10c5 3 8 7 10 10v1c0 1 -1 3 -2 6c-65 80 -87 109 -103 153c-7 20 -7 41 -7 60v40c0 13 2 25 5 37c4 10 8 20 14 29l20 25l23 22l22 22c8 7 16 13 22 18c8 6 16 11 26 16l11 6 c9 4 18 7 27 7c6 0 13 -1 20 -4c16 -5 28 -15 36 -30c4 -8 6 -17 6 -27c0 -6 -1 -13 -3 -20c-5 -16 -15 -28 -30 -36l-10 -5l-3 -1c2 -6 2 -11 2 -16v-31c0 -4 1 -11 3 -21c11 -45 40 -94 91 -139c22 -19 27 -51 27 -80c0 -7 -1 -14 -1 -20c-1 -10 -3 -21 -8 -34 s-11 -25 -19 -35c-6 -7 -13 -15 -22 -23c-7 -7 -14 -12 -21 -17c-6 -4 -13 -8 -22 -13c-5 -3 -10 -5 -14 -8l-9 -7c-6 -4 -34 -15 -39 -17c-53 -14 -62 -15 -115 -19h-5c-17 0 -32 6 -44 18c-12 13 -18 27 -18 44zM236 -232c15 9 24 21 29 37l4 18c3 25 4 42 4 48 c-1 57 -10 70 -33 70c-29 0 -52 -4 -74 -43c-1 0 -16 -29 -17 -39l-3 -23c-1 -5 -1 -10 -1 -15c0 -11 2 -21 8 -31c11 -19 32 -30 53 -30c10 0 21 2 30 8z"></glyph><glyph glyph-name="germandbls" unicode="ß" d="M235 -97c-6 -2 -13 -3 -19 -3c-4 0 -8 0 -12 1l-8 -9c-12 -9 -25 -14 -40 -14c-19 0 -35 7 -47 22l-8 9c-11 13 -19 27 -24 43c-2 8 -4 16 -7 23c-5 11 -8 28 -11 49l-6 57c-2 23 -3 42 -3 57v212c1 21 2 43 5 64c3 19 6 34 7 45c3 13 8 33 17 58c8 23 16 45 24 64 c11 23 25 47 44 71l9 11l10 12l8 10c4 4 8 7 13 10c4 3 9 5 15 8s12 5 19 7c17 8 39 11 57 9c10 -1 34 -3 43 -6h9c17 0 31 -6 44 -18c12 -12 18 -26 18 -43c0 -5 -1 -10 -2 -15c6 -13 10 -25 12 -38c2 -14 4 -31 5 -50c2 -19 3 -33 3 -41v-29c0 -14 -1 -28 -2 -41 c-1 -11 -3 -19 -4 -24l-2 -15v-25l10 -14c3 -5 8 -12 15 -20l18 -24c5 -8 11 -18 17 -31l14 -32c7 -17 12 -33 15 -48l6 -37c1 -14 2 -26 2 -35c0 -14 -3 -28 -8 -43c-7 -21 -19 -36 -35 -47l-16 -11c-9 -6 -17 -11 -24 -14l-6 -3c-8 -4 -16 -5 -24 -5s-15 1 -23 4 c-16 6 -27 17 -34 32c-4 8 -6 17 -6 26c0 7 1 14 4 21c6 16 17 27 32 34l6 3l5 3l6 4l-1 17c-1 11 -3 20 -5 29c-1 5 -3 12 -6 20c-6 12 -11 23 -15 32l-4 10l-15 19c-9 11 -15 20 -20 27c-3 5 -7 10 -11 15c-20 27 -20 48 -20 85c0 18 7 74 6 62c1 8 1 17 2 26l6 75l-10 2 c-26 -61 -31 -142 -31 -187v-108c0 -128 1 -195 14 -255l3 -12l4 -13c2 -6 3 -13 3 -19c0 -9 -2 -18 -6 -28c-8 -15 -20 -26 -35 -31z"></glyph><glyph glyph-name="t" unicode="t" d="M405 518c20 -13 28 -31 28 -49c0 -11 -3 -22 -8 -33c-17 -30 -59 -43 -109 -50l-12 -2c-2 -33 -5 -66 -8 -102c-1 -16 -3 -37 -3 -57c0 -36 1 -65 25 -87c33 -9 60 -31 60 -59c0 -46 -36 -79 -71 -79c-48 0 -81 12 -99 33c-59 70 -62 166 -61 217c1 7 3 58 4 114l-41 -6 c-33 -4 -61 27 -60 61c-1 33 28 57 62 62l42 7v20v63c0 27 1 46 4 57l2 8c4 15 13 28 26 37c9 21 25 33 48 36c3 1 7 1 10 1c12 0 24 -4 35 -12c14 -11 22 -24 24 -41l1 -7c1 -8 2 -16 2 -23c2 -37 3 -74 3 -83v-31l9 1c29 5 48 10 64 10c8 0 16 -1 23 -6z"></glyph><glyph glyph-name="tbar" unicode="ŧ" d="M392 114c32 0 50 -29 50 -58c0 -25 -14 -49 -44 -51c-2 0 -42 -15 -97 -15c-79 0 -129 76 -129 163c-2 13 -3 38 -5 69c-4 0 -9 0 -13 -1h-6c-16 -2 -29 3 -41 15c-4 5 -11 14 -15 34c-1 14 4 27 13 39c10 9 22 16 36 17l6 -1l11 2c2 1 4 1 7 1c-1 24 -1 47 -1 69l-54 -7 c-33 -4 -61 27 -60 61c-1 33 28 57 62 62l54 9c1 106 -1 83 3 96c-1 3 -1 8 -1 13c0 14 2 31 3 40c6 35 15 29 55 29h49c33 0 61 -29 61 -62c0 -13 -4 -25 -12 -36c0 -12 -1 -27 -2 -55c27 4 45 9 60 9c8 0 16 -1 23 -6c20 -13 28 -31 28 -49c0 -11 -3 -22 -8 -33 c-17 -29 -57 -42 -105 -49c0 -20 1 -47 1 -73l12 3c5 2 9 2 14 2c9 0 17 -2 25 -7c14 -7 23 -19 26 -35c1 -4 1 -7 1 -11c0 -8 -2 -16 -6 -24c-7 -14 -17 -21 -30 -25l-15 -4c-4 -2 -8 -3 -13 -4c-3 -1 -7 -1 -10 -2c1 -10 2 -22 4 -34c3 -24 6 -45 7 -62c1 -6 1 -11 2 -14 c3 -7 6 -14 8 -21c15 4 34 6 46 6z"></glyph><glyph glyph-name="tcaron" unicode="ť" d="M504 757c34 0 62 -29 62 -62c0 -2 -1 -5 -1 -8l-1 -6l-3 -21c-1 -1 -1 -5 -1 -9l-22 -87l-3 -6c-9 -24 -32 -40 -58 -40c-38 0 -61 30 -61 61c0 7 2 14 4 21l10 42c0 10 10 25 11 44c1 5 1 8 1 10l1 6c5 30 31 55 61 55zM336 551c35 -5 67 -20 67 -65 c0 -33 -29 -60 -61 -60h-11c-7 -173 -17 -412 -17 -415c0 -13 -4 -25 -13 -36c-12 -15 -28 -23 -48 -23c-14 0 -27 4 -38 13l-6 4c-7 6 -13 13 -18 20s-7 13 -8 16l-6 16l-10 35c-2 11 -4 30 -6 57c-2 26 -3 62 -3 108v196l-18 -2l-27 -7c-32 0 -63 24 -63 62 c0 46 45 68 108 77v87c0 17 6 31 18 43s27 18 44 18c9 0 19 -2 28 -7l13 8l7 3c8 4 17 6 26 6c6 0 13 -1 21 -3c14 -5 25 -13 25 -71c0 -9 0 -19 -1 -30zM342 426h-1h1z"></glyph><glyph glyph-name="uni0163" unicode="ţ" d="M455 112c7 -10 10 -21 10 -33c0 -23 -10 -40 -27 -52l-7 -5l-15 -10c-14 -9 -31 -15 -52 -17c-6 -1 -12 -1 -19 -1c-11 0 -22 1 -35 2c-3 1 -6 1 -9 1c-12 -4 -23 -5 -34 -5c-72 0 -123 77 -123 196c-6 33 -6 88 -9 133c-2 33 -3 60 -4 80l-21 -3c-33 -4 -61 27 -60 61 c-1 33 28 57 62 62l21 3c0 10 2 18 3 23l8 37l2 6c24 73 57 108 99 103c7 2 13 4 20 4c19 0 35 -7 47 -21c11 -13 16 -27 15 -44l-1 -20l-5 -57c27 4 46 9 61 9c8 0 16 -1 23 -6c20 -13 28 -31 28 -49c0 -11 -3 -22 -8 -33c-17 -30 -59 -43 -109 -50h-2l-1 -71 c0 -21 -2 -120 -3 -164c0 -41 3 -67 3 -91c31 22 50 39 89 39c24 0 41 -10 53 -27zM269 -102c20 0 39 -8 48 -24c5 -13 10 -31 10 -50c0 -23 -7 -43 -22 -62c-12 -14 -25 -27 -40 -34l-22 -12c-9 -6 -18 -8 -28 -8c-6 0 -12 1 -19 3c-16 5 -29 15 -36 30c-5 9 -8 18 -8 28 c0 5 1 11 3 17c5 17 14 29 29 37l6 3l4 3c1 2 3 3 4 3c2 44 39 66 71 66z"></glyph><glyph glyph-name="uni021B" unicode="ț" d="M455 112c7 -10 10 -21 10 -33c0 -23 -10 -40 -27 -52l-7 -5l-15 -10c-14 -9 -31 -15 -52 -17c-6 -1 -12 -1 -19 -1c-11 0 -22 1 -35 2c-3 1 -6 1 -9 1c-12 -4 -23 -5 -34 -5c-72 0 -123 77 -123 196c-6 33 -6 88 -9 133c-2 33 -3 60 -4 80l-21 -3c-33 -4 -61 27 -60 61 c-1 33 28 57 62 62l21 3c0 10 2 18 3 23l8 37l2 6c24 73 57 108 99 103c7 2 13 4 20 4c19 0 35 -7 47 -21c11 -13 16 -27 15 -44l-1 -20l-5 -57c27 4 46 9 61 9c8 0 16 -1 23 -6c20 -13 28 -31 28 -49c0 -11 -3 -22 -8 -33c-17 -30 -59 -43 -109 -50h-2l-1 -71 c0 -21 -2 -120 -3 -164c0 -41 3 -67 3 -91c31 22 50 39 89 39c24 0 41 -10 53 -27zM269 -102c20 0 39 -8 48 -24c5 -13 10 -31 10 -50c0 -23 -7 -43 -22 -62c-12 -14 -25 -27 -40 -34l-22 -12c-9 -6 -18 -8 -28 -8c-6 0 -12 1 -19 3c-16 5 -29 15 -36 30c-5 9 -8 18 -8 28 c0 5 1 11 3 17c5 17 14 29 29 37l6 3l4 3c1 2 3 3 4 3c2 44 39 66 71 66z"></glyph><glyph glyph-name="u" unicode="u" d="M511 104c2 -15 3 -26 3 -33v-19c0 -35 -27 -62 -61 -62s-62 27 -62 62c0 23 -10 97 -12 134c-45 -96 -98 -186 -188 -186c-111 0 -141 110 -141 284c0 83 15 153 15 206c0 39 18 58 42 58c5 0 11 -1 17 -3c12 11 26 17 42 17c33 0 61 -29 61 -62c0 -76 8 -247 14 -328 c70 66 123 199 123 323c0 34 29 61 62 61s61 -28 61 -61v-14c7 -44 13 -96 13 -139c0 0 0 -101 1 -124c1 -49 6 -89 10 -114z"></glyph><glyph glyph-name="uacute" unicode="ú" d="M260 576c-19 0 -35 7 -47 21c-10 10 -15 23 -15 38c0 20 7 36 21 48l20 18c13 11 21 18 25 23l9 10c12 13 27 19 46 19c16 0 30 -5 41 -16c13 -13 19 -28 19 -46c0 -16 -5 -30 -16 -41l-9 -10c-7 -7 -19 -18 -34 -31l-20 -18c-11 -10 -25 -15 -40 -15zM488 114 c2 -18 3 -29 3 -52c0 -35 -27 -62 -61 -62s-62 27 -62 62c0 14 -1 48 -3 90c-17 -76 -96 -152 -167 -152c-20 0 -40 6 -57 19c-14 11 -27 26 -39 44c-10 16 -18 36 -25 51c-8 17 -15 40 -20 71c-5 29 -7 63 -7 84c0 39 1 54 3 85c3 33 5 58 8 77l5 32v10c2 21 13 37 33 48 c3 13 11 24 22 33s23 13 37 13c17 0 31 -6 44 -18c12 -12 18 -26 18 -43v-13l-1 -60c0 -11 -2 -43 -2 -79c0 -56 5 -124 28 -140c53 13 98 89 98 155c0 12 -1 43 -2 63c-3 17 -3 27 -6 43l-2 6c-2 6 -2 11 -2 17c0 10 2 20 8 30c8 14 20 24 35 28c7 3 14 4 22 4 c33 0 61 -28 61 -61v-8c2 -8 3 -19 5 -32c10 -63 15 -110 15 -193z"></glyph><glyph glyph-name="ubreve" unicode="ŭ" d="M195 649c-22 18 -32 38 -32 59c0 10 2 20 7 31l3 6c7 15 19 26 35 32c7 2 15 3 22 3c8 0 17 -1 25 -5c18 -9 29 -23 34 -43l2 -2l6 -2l3 6l5 15l3 10c5 15 16 27 31 35c9 4 19 6 28 6c6 0 13 -1 19 -2c16 -5 28 -16 36 -31c4 -9 6 -18 6 -27c0 -7 -1 -13 -3 -20l-4 -10 c-2 -7 -4 -14 -6 -19c-3 -7 -7 -16 -13 -26c-7 -14 -17 -26 -29 -36c-19 -17 -41 -25 -66 -25c-10 0 -21 1 -33 3c-17 3 -33 10 -48 19c-11 7 -21 14 -31 23zM497 490c2 -48 4 -119 4 -180c0 -23 0 -45 -1 -63c0 -9 -1 -18 -1 -26v-158c0 -33 -27 -61 -61 -61 c-23 0 -40 10 -52 29c-7 33 -10 68 -12 101c-41 -53 -87 -107 -154 -125c-9 -6 -25 -7 -49 -7c-38 0 -66 46 -85 92c-5 13 -10 27 -14 42c-5 19 -8 36 -9 46c-9 172 -13 167 -13 203c0 16 1 38 2 85l11 56c13 20 31 32 54 32c38 0 69 -24 79 -62c4 -17 -1 4 15 -55 c25 -91 30 -151 30 -237v-15c50 32 140 112 134 283c-1 4 -1 8 -1 12c-2 34 22 66 62 66c28 0 59 -23 61 -58z"></glyph><glyph glyph-name="ucircumflex" unicode="û" d="M229 594c-20 0 -36 10 -48 26c-9 10 -13 22 -13 35c0 3 0 7 1 10l2 17c3 15 6 30 11 46c3 6 4 11 5 15c1 8 3 17 6 27l5 18c5 17 15 30 31 40c14 9 28 13 42 13c32 0 58 -18 76 -53l17 -30c6 -10 11 -20 16 -31l6 -14c4 -8 6 -16 6 -25c0 -7 -1 -14 -4 -21 c-6 -17 -17 -28 -32 -35c-9 -4 -18 -7 -26 -7c-14 0 -27 6 -40 17c-4 -15 -12 -27 -25 -36c-11 -8 -23 -12 -36 -12zM489 69c2 -17 -2 -32 -13 -45c-13 -17 -32 -24 -54 -24c-13 0 -28 1 -32 13c-19 55 -19 136 -19 179c-42 -174 -149 -193 -186 -193c-49 0 -61 14 -67 21 c-13 13 -21 27 -24 40s-21 72 -22 89c-12 49 -22 96 -22 152c0 46 2 60 6 103c3 32 4 51 4 58v3l-4 11c-3 7 -4 14 -4 21c0 8 2 17 6 26c7 15 19 26 35 32c7 2 14 3 21 3c9 0 17 -2 26 -6c15 -7 26 -19 32 -35l4 -11l2 -6c21 -12 32 -30 32 -54v-12l1 -41 c0 -100 6 -189 6 -193c0 -22 5 -48 22 -48c34 0 72 132 113 329c12 57 42 72 53 72c40 0 77 -13 77 -72c0 -31 -3 -132 -3 -197c2 -61 6 -173 7 -183l1 -24z"></glyph><glyph glyph-name="udieresis" unicode="ü" d="M279 669l-2 7c-3 7 -4 14 -4 21c0 8 2 17 6 26c7 15 19 26 35 31c7 3 14 4 21 4c11 7 22 10 34 10h8l26 -1c17 -2 33 -10 47 -24c16 -17 23 -36 23 -57c0 -29 -12 -51 -36 -65c-15 -9 -31 -13 -50 -13c-14 0 -30 3 -49 10l-6 2c-4 1 -7 2 -9 3l-8 4c-4 1 -7 3 -10 6 l-10 8c-3 3 -6 7 -9 12s-5 10 -7 16zM171 601c-35 0 -72 24 -72 63c0 4 2 7 2 10l1 8c1 13 7 25 17 36c10 10 21 17 34 20c7 2 14 4 20 4c8 0 17 -3 25 -6c17 -7 30 -19 37 -36c4 -9 6 -18 6 -27s-2 -16 -5 -25l-3 -8c-11 -26 -37 -39 -62 -39zM540 39 c3 -36 -24 -68 -61 -68c-30 0 -58 23 -62 56c-1 12 -5 38 -10 70c-12 -28 -26 -51 -42 -67c-12 -21 -28 -37 -47 -49c-24 -15 -47 -22 -68 -22c-11 0 -21 0 -32 1c-17 1 -36 7 -57 18c-18 9 -32 19 -43 28c-9 8 -17 16 -25 25c-9 11 -19 26 -28 46c-10 23 -15 49 -15 78 l1 81c1 67 8 133 23 188c8 32 15 54 21 66c8 15 19 28 34 40l12 11c11 9 23 13 36 14c9 3 18 4 28 4h10c17 0 31 -6 43 -18s18 -27 18 -44c0 -21 -9 -38 -27 -51c-3 -17 -4 -41 -4 -70c-1 -32 -1 -65 -1 -95c0 -52 1 -97 7 -127c3 -15 5 -26 8 -34c2 -2 5 -4 9 -7l3 7 c5 11 13 20 24 27l7 17c11 32 20 65 27 99c9 47 10 65 11 155c0 17 0 28 -1 35l-2 18c-1 2 -1 5 -2 7l-1 8c-1 8 0 17 2 24c7 27 31 47 59 47c30 0 58 -24 62 -55l1 -7v-3c0 -2 1 -4 1 -7c20 -69 54 -328 72 -394c4 -18 6 -29 9 -52z"></glyph><glyph glyph-name="ugrave" unicode="ù" d="M70 693c-13 12 -20 27 -20 46c0 16 5 30 16 42c12 12 27 19 45 19c16 0 30 -5 42 -16l6 -5c3 -3 9 -7 19 -14l31 -19c9 -5 16 -8 19 -9l6 -3c15 -7 26 -19 32 -35c3 -7 4 -15 4 -22c0 -8 -2 -17 -5 -25c-7 -15 -19 -26 -35 -31c-7 -3 -15 -4 -22 -4c-8 0 -17 1 -25 5 l-32 16c-11 6 -25 14 -40 24c-17 11 -28 20 -35 26zM500 58c3 -34 -21 -58 -55 -58c-46 0 -66 27 -66 59c0 9 2 19 5 29c-2 1 -5 10 -8 24c-31 -59 -74 -102 -128 -113c-14 -3 -26 -4 -37 -4c-9 0 -16 1 -23 2c-25 6 -46 23 -64 51c-54 90 -74 207 -74 293c0 32 2 59 7 79 c4 19 6 35 9 47l4 16c4 16 14 28 29 37c10 6 20 9 31 9c5 0 10 -1 15 -2c8 -2 15 -6 22 -11c7 8 36 -35 36 -87c0 -10 -1 -20 -3 -30c5 -50 17 -179 64 -231c25 51 37 145 37 225c0 30 -2 57 -5 80c-1 5 -1 10 -2 16c-3 36 26 68 61 68c30 0 58 -25 61 -71l1 -14 c7 -16 11 -36 14 -57c20 -94 46 -252 60 -305c4 -18 6 -29 9 -52z"></glyph><glyph glyph-name="uhungarumlaut" unicode="ű" d="M188 611c-6 8 -11 16 -13 25c-2 6 -2 12 -2 20v6c1 6 1 12 3 16c1 5 3 9 5 14l4 10l7 9c3 4 5 6 6 6c8 12 33 48 44 60l15 18c8 8 18 14 29 17c7 2 13 3 19 3c15 0 28 -5 39 -16c9 -8 15 -17 18 -29c2 -6 3 -12 3 -18c0 -15 -6 -28 -15 -39l-16 -17 c-9 -9 -15 -19 -22 -29l-17 -24c-3 -16 -10 -29 -22 -39c-7 -6 -15 -10 -23 -12c-7 -2 -13 -3 -20 -3c-17 2 -31 9 -42 22zM374 547c-16 5 -31 30 -31 54c0 37 29 65 58 94c22 22 25 38 61 38c33 0 60 -26 60 -61c0 -29 -20 -50 -45 -79c-21 -25 -36 -50 -63 -53 c-24 2 -43 7 -40 7zM455 375c7 -25 15 -64 26 -115c12 -55 18 -104 18 -148v-96c0 -17 -6 -31 -18 -43s-26 -18 -43 -18s-32 6 -44 18s-18 26 -18 43v96c0 11 0 22 -1 34c-6 -27 -12 -56 -26 -95c-15 -44 -44 -60 -74 -60c-14 0 -27 3 -40 10l-29 3c-21 3 -40 12 -59 27 c-13 11 -25 22 -35 34c-9 11 -17 23 -23 34c-6 12 -12 28 -19 49c-6 21 -11 43 -15 68c-3 25 -5 57 -5 97v200c0 17 6 32 18 44s27 18 44 18s32 -7 45 -20c4 1 8 1 13 1c10 0 21 -2 33 -8c12 -5 22 -13 30 -25c8 -13 12 -26 13 -39l1 -13c1 -9 1 -22 1 -40 c0 -71 6 -162 19 -244l3 -13c7 7 13 30 22 33l3 15c10 49 17 120 17 140c0 36 1 59 3 70l2 8c4 17 13 30 28 39c10 6 21 9 32 9c23 0 39 -13 53 -30l4 -6c13 -26 16 -57 21 -77zM327 382c0 -1 -1 -1 0 0z"></glyph><glyph glyph-name="umacron" unicode="ū" d="M192 651c-17 -1 -32 3 -45 14c-15 12 -23 28 -23 47c0 15 5 27 15 39c11 13 24 21 41 23l10 1l36 2c15 1 29 1 42 2l24 2l9 1c17 1 32 -3 46 -14c15 -12 23 -28 23 -48c0 -14 -5 -26 -14 -38c-11 -13 -24 -21 -41 -23l-10 -1l-31 -2c-13 -1 -27 -1 -42 -2s-25 -1 -30 -2z M553 214c0 -26 1 -64 13 -159c0 -33 -25 -64 -60 -64c-27 0 -51 18 -60 44c-7 22 -9 34 -8 49c-7 44 -5 147 -8 183l-13 -26c-8 -78 -48 -194 -48 -193c-5 -8 -27 -62 -97 -67c-10 -2 -19 -3 -28 -3c-11 0 -23 2 -36 6c-19 7 -33 13 -46 19c-14 7 -28 18 -43 31 c-22 18 -36 40 -45 68c-3 10 -6 20 -9 33c-2 12 -4 27 -7 41c-6 31 -8 56 -8 74c0 19 3 45 7 77c20 110 48 183 84 219c12 12 28 19 43 19c16 0 30 -8 41 -20c13 -12 19 -26 20 -44v-6c-1 -11 -4 -25 -10 -41c-1 -5 -2 -12 -1 -17c-4 -46 -13 -106 -13 -161 c0 -36 4 -70 14 -97c14 -38 24 -56 32 -56c11 0 20 25 34 68c7 16 52 177 54 191c10 50 18 74 27 99v1c-1 20 6 47 19 62c8 9 15 13 25 14c54 6 91 -38 102 -99c7 -42 25 -170 25 -245z"></glyph><glyph glyph-name="uogonek" unicode="ų" d="M496 -111c16 -11 25 -29 25 -51c0 -13 -4 -24 -11 -34l-9 -13c-13 -17 -27 -29 -42 -36c-11 -4 -26 -7 -45 -7c-26 0 -50 5 -71 16c-8 4 -15 9 -22 15c-14 13 -25 28 -32 47s-10 36 -10 52c0 73 41 141 98 192l-3 62c-41 -53 -87 -107 -154 -125c-9 -6 -25 -7 -49 -7 c-38 0 -66 46 -85 92c-5 13 -10 27 -14 42c-5 19 -8 36 -9 46c-9 172 -13 167 -13 203c0 16 1 38 2 85l11 56c13 20 31 32 54 32c45 0 81 -33 81 -83c0 -23 -3 -58 -3 -102c0 -179 25 -184 46 -184c50 32 140 112 134 283c-1 4 -1 8 -1 12c-2 34 22 66 62 66 c28 0 58 -24 61 -58c10 -112 19 -213 19 -294c0 -85 -10 -148 -37 -176c-10 -12 -61 -61 -70 -87c-7 -17 -9 -29 -9 -37c0 -10 3 -15 2 -18c0 -1 1 -3 2 -6c1 -1 2 -1 3 -1l3 4c11 17 29 26 51 26c12 0 24 -4 35 -12z"></glyph><glyph glyph-name="uring" unicode="ů" d="M203 643c-9 12 -16 25 -19 38c-3 10 -4 20 -4 29v16c0 11 1 21 4 32l2 9c3 15 12 28 26 37c13 9 28 12 44 10c0 4 1 8 2 13c3 16 12 29 27 38c10 7 21 10 32 10c4 0 9 -1 14 -2l10 -2l25 -6c19 -5 34 -13 46 -24c9 -9 16 -18 21 -27c5 -10 9 -20 11 -31c2 -8 3 -17 3 -27 c0 -11 -1 -21 -4 -31l-6 -18c-1 -5 -3 -9 -4 -12c-3 -11 -7 -22 -14 -32c-5 -7 -11 -15 -18 -22c-8 -8 -17 -15 -26 -20c-7 -4 -14 -8 -21 -11c-8 -3 -16 -6 -25 -8c-8 -2 -16 -3 -24 -3c-5 0 -10 0 -15 1c-8 1 -16 2 -24 4c-9 3 -19 6 -29 11c-13 7 -24 16 -34 28zM297 775 c3 -8 4 -15 4 -20c0 -16 -9 -23 -9 -33c0 -11 13 -23 25 -23s27 24 27 46c0 17 -11 32 -29 32c-5 0 -11 -1 -18 -2zM553 101c2 -18 3 -29 3 -53c0 -34 -27 -55 -60 -51c-42 4 -60 29 -60 58c0 11 3 23 8 35l-11 124c-16 -98 -54 -219 -145 -219h-25c-11 1 -21 3 -30 7 c-132 34 -183 144 -183 252c0 46 18 181 49 244l12 27c7 15 19 25 36 31c7 3 14 4 21 4c9 0 18 -2 26 -6l4 -3c7 6 15 10 23 10c21 0 44 -22 44 -73c0 -11 -1 -24 -4 -39c-5 -43 -17 -107 -17 -171c0 -56 9 -112 38 -155c73 74 89 218 89 317c0 14 -1 26 -1 38v16 c0 34 36 66 69 66c32 0 61 -29 59 -77l-1 -14c13 -67 45 -299 56 -368z"></glyph><glyph glyph-name="v" unicode="v" d="M381 544c37 0 60 -30 60 -62c0 -9 -2 -18 -8 -31s-47 -188 -50 -210c-8 -60 -33 -180 -54 -229c-7 -15 -23 -24 -39 -24c-17 0 -34 10 -41 31c-7 -12 -25 -20 -42 -20c-24 0 -46 13 -56 36c-10 24 -13 33 -14 44c-1 8 -3 16 -8 28c-7 19 -43 155 -38 147 c-10 19 -20 86 -31 129c-7 39 -10 63 -10 99c0 33 27 62 62 62c13 0 25 -4 36 -13c12 21 30 31 53 31c33 0 61 -27 61 -62c0 -19 1 -33 4 -57c1 -11 9 -55 12 -78c2 24 26 98 33 114c18 44 32 65 70 65z"></glyph><glyph glyph-name="w" unicode="w" d="M189 563c-15 0 -30 -6 -42 -18c-11 8 -22 12 -35 12c-35 0 -62 -28 -62 -61v-7c0 -7 0 -15 1 -24c3 -17 10 -56 14 -76c4 -15 12 -62 57 -219c1 -3 1 -5 2 -7c1 -12 4 -25 9 -39l9 -25c5 -13 11 -25 20 -38c12 -20 29 -34 48 -43l14 -6c8 -4 17 -6 26 -6c7 0 14 1 21 4 c32 12 43 42 40 63c9 24 17 62 25 117c5 -31 10 -56 17 -75c1 -1 1 -3 2 -6c1 -11 4 -23 8 -34c3 -8 5 -15 7 -22c2 -9 5 -18 8 -26v-2c6 -21 29 -37 59 -37c6 0 13 0 20 2c34 8 46 33 47 70l34 311l9 50c2 11 3 18 4 21c3 10 5 21 6 33l1 13c3 35 -26 66 -61 66 c-31 0 -59 -26 -62 -57l-1 -12v-6c-3 -7 -5 -19 -8 -36l-9 -49c-4 -21 -7 -43 -8 -66v-3c-3 9 -7 18 -10 25l-3 12c-2 7 -6 16 -11 25c-12 19 -26 36 -53 36c-28 0 -58 -21 -73 -49c-6 52 -9 85 -8 98l1 28c1 34 -28 63 -63 63z"></glyph><glyph glyph-name="wacute" unicode="ẃ" d="M406 599c-11 -9 -20 -17 -28 -22l-10 -8c-10 -9 -22 -13 -34 -13c-22 0 -40 8 -52 24c-9 10 -13 22 -13 35c0 23 8 39 24 51l10 8l18 15c8 7 20 16 36 29l24 18c11 9 23 13 37 13c21 0 36 -9 49 -24c9 -11 13 -23 13 -37s-4 -26 -13 -37c-67 -58 -59 -51 -61 -52z M189 563c-15 0 -30 -6 -42 -18c-11 8 -22 12 -35 12c-35 0 -62 -28 -62 -61v-7c0 -7 0 -15 1 -24c3 -17 10 -56 14 -76c4 -15 12 -62 57 -219c1 -3 1 -5 2 -7c1 -12 4 -25 9 -39l9 -25c5 -13 11 -25 20 -38c12 -20 29 -34 48 -43l14 -6c8 -4 17 -6 26 -6c7 0 14 1 21 4 c32 12 43 42 40 63c9 24 17 62 25 117c5 -31 10 -56 17 -75c1 -1 1 -3 2 -6c1 -11 4 -23 8 -34c3 -8 5 -15 7 -22c2 -9 5 -18 8 -26v-2c6 -21 29 -37 59 -37c6 0 13 0 20 2c34 8 46 33 47 70l34 311l9 50c2 11 3 18 4 21c3 10 5 21 6 33l1 13c3 35 -26 66 -61 66 c-31 0 -59 -26 -62 -57l-1 -12v-6c-3 -7 -5 -19 -8 -36l-9 -49c-4 -21 -7 -43 -8 -66v-3c-3 9 -7 18 -10 25l-3 12c-2 7 -6 16 -11 25c-12 19 -26 36 -53 36c-28 0 -58 -21 -73 -49c-6 52 -9 85 -8 98l1 28c1 34 -28 63 -63 63z"></glyph><glyph glyph-name="wcircumflex" unicode="ŵ" d="M247 536c-15 0 -27 5 -39 15c-13 11 -21 24 -22 41l-1 9c-1 12 0 25 2 40c2 11 5 27 10 46l13 49c5 15 12 30 19 43c9 15 20 26 34 31c7 2 15 4 22 4c6 0 11 -1 17 -3c13 -4 24 -9 34 -15c9 -6 16 -11 19 -16c12 -17 23 -34 32 -52c8 -17 14 -32 19 -43c2 -7 4 -11 6 -14 l7 -12l5 -6c7 -10 10 -21 10 -33c0 -24 -10 -41 -26 -53c-11 -7 -22 -10 -33 -10c-24 0 -41 9 -53 26l-4 7l-9 13c1 -17 -3 -31 -14 -44c-13 -15 -29 -23 -48 -23zM166 552c17 0 31 -6 44 -18c12 -13 18 -27 18 -44v-17c0 -8 1 -28 3 -60l4 8c9 17 26 27 51 32 c5 1 10 2 15 2c18 0 34 -7 46 -20c5 -7 10 -13 13 -19c3 -7 6 -12 7 -15l3 -18c1 -8 2 -14 3 -17l40 -145c10 53 16 83 19 149l1 78v79c0 17 6 31 19 43c12 12 26 18 43 18s31 -6 43 -18s18 -26 18 -43v-79c-4 -177 -8 -263 -62 -391l-6 -15c-3 -8 -6 -13 -7 -16l-7 -13 c-3 -6 -7 -11 -11 -15l-17 -13c-6 -4 -14 -7 -24 -10c-5 -1 -10 -2 -16 -2s-14 1 -22 3c-15 3 -27 11 -36 24c-7 9 -13 24 -20 44c-5 17 -10 33 -13 49l-10 46c-2 -15 -4 -28 -6 -39l-9 -56v-4l-1 -10c-1 -5 -3 -10 -5 -14c-2 -5 -5 -9 -9 -14s-9 -8 -14 -11 c-6 -2 -13 -3 -22 -4h-3c-8 0 -18 2 -28 6c-17 5 -30 14 -37 25c-17 5 -29 16 -36 32l-5 10l-9 20l-7 14c-5 9 -9 23 -14 40c-31 102 -50 180 -50 265v69c0 17 6 31 18 43s27 18 44 18h7c12 15 28 23 47 23z"></glyph><glyph glyph-name="wdieresis" unicode="ẅ" d="M259 609c-23 0 -40 10 -51 27c-6 10 -10 21 -10 32c0 15 3 27 11 38c3 11 8 21 17 29s19 13 30 16c4 1 8 1 12 1c13 0 24 -3 35 -10c14 -10 23 -23 26 -39l1 -7c1 -4 1 -9 1 -13c0 -10 -2 -19 -6 -29c-7 -14 -15 -24 -26 -31l-6 -4c-10 -7 -22 -10 -34 -10zM442 602 c-17 0 -32 6 -44 18s-18 26 -18 43v19c0 17 6 31 18 44c12 12 27 18 44 18s31 -6 43 -18c12 -13 18 -27 18 -44v-19c0 -17 -6 -31 -18 -43s-26 -18 -43 -18zM527 554c35 0 64 -31 61 -66l-1 -13c-1 -12 -3 -23 -6 -33c-1 -3 -2 -10 -4 -21l-9 -50l-34 -311 c-1 -37 -13 -62 -47 -70c-7 -2 -14 -2 -20 -2c-30 0 -53 16 -59 37v2c-3 8 -6 17 -8 26c-2 7 -4 14 -7 22c-4 11 -7 23 -8 34c-1 3 -1 5 -2 6c-7 19 -12 43 -17 73c-22 -50 -46 -104 -70 -152c-7 -17 -28 -37 -50 -41c-29 -4 -58 13 -68 40c-31 16 -52 78 -58 112 c-2 6 -5 20 -11 40c-37 126 -58 194 -59 267c0 51 28 96 69 96c9 0 18 -2 26 -6c9 6 39 15 33 12c33 0 64 -26 64 -59l22 -196l8 -2l17 75c7 14 8 16 9 14c16 21 41 35 64 35c27 0 41 -17 53 -36c5 -9 9 -18 11 -25l3 -12c3 -7 7 -16 10 -25v3c1 23 4 45 8 66l9 49 c3 17 5 29 8 36v6l1 12c3 31 31 57 62 57z"></glyph><glyph glyph-name="wgrave" unicode="ẁ" d="M148 685l-8 10c-9 12 -13 25 -13 40c0 19 8 34 22 46c11 9 23 13 37 13c21 0 37 -7 50 -22l7 -9c3 -4 9 -12 16 -18l33 -31l16 -16c9 -9 17 -16 18 -17l10 -6c17 -11 27 -28 27 -51c0 -12 -3 -23 -10 -34c-11 -18 -29 -28 -53 -28c-12 0 -22 4 -32 10l-9 6 c-9 6 -20 14 -32 25c-2 2 -6 6 -11 10c-8 8 -19 22 -30 33c-9 9 -18 17 -25 25c-6 6 -11 12 -13 14zM556 468v-69c0 -36 -32 -207 -50 -265c-5 -17 -9 -31 -14 -40l-7 -14l-9 -20l-5 -10c-7 -16 -19 -27 -36 -32c-7 -11 -20 -20 -37 -25c-10 -4 -20 -6 -28 -6h-2 c-9 1 -17 2 -22 4c-6 3 -11 6 -15 11s-7 9 -9 14c-2 4 -3 9 -4 14l-2 10v4l-9 56c-2 11 -4 24 -6 39l-10 -46c-3 -16 -8 -32 -13 -49c-7 -20 -13 -35 -20 -44c-9 -13 -21 -21 -36 -24c-8 -2 -16 -3 -22 -3s-11 1 -15 2c-11 3 -19 6 -25 10c-7 5 -12 9 -16 13 c-5 4 -9 9 -12 15l-7 13l-6 16l-7 15c-54 128 -58 214 -62 391v79c0 17 6 31 18 43s26 18 43 18s31 -6 43 -18c12 -11 18 -24 19 -40h2c17 0 31 -6 44 -18c12 -13 18 -27 18 -44v-17c0 -8 1 -28 3 -60v-164c6 -12 11 -24 13 -35l25 158c1 3 2 9 3 17l3 18c1 3 4 8 7 15 c3 6 8 12 13 19c12 13 28 20 46 20c5 0 10 0 15 -2c38 -14 38 -25 43 -202c17 66 23 118 23 185c0 21 -1 43 -2 68c-3 18 -4 33 -4 47c0 9 0 18 1 28c3 32 31 56 62 56c35 0 64 -32 61 -66l-2 -14c2 -15 3 -30 4 -46c3 -8 5 -16 5 -25z"></glyph><glyph glyph-name="x" unicode="x" d="M409 104c14 -29 19 -40 20 -55c0 -22 -12 -44 -32 -55c-9 -5 -19 -7 -29 -7c-5 0 -11 1 -16 2c-8 -1 -18 0 -35 8c-11 1 -29 5 -40 13l-6 4c-11 6 -19 15 -24 26c-4 4 -9 9 -14 16c-9 18 -18 35 -26 52c-8 -14 -14 -26 -18 -36c-7 -13 -11 -23 -16 -29l-10 -16 c-13 -18 -32 -27 -51 -27c-36 0 -62 30 -62 62c0 11 4 23 11 33c59 114 59 112 80 142v1c-62 125 -89 183 -89 204c0 17 7 35 21 47c-2 6 -2 11 -2 17c0 31 25 61 62 61c20 0 44 -13 54 -30c26 0 41 -16 51 -39c-2 4 11 -58 16 -67l6 -20c10 18 18 33 22 44 c21 53 42 93 86 93c33 0 59 -28 60 -62c-1 -21 -4 -24 -18 -44l-14 -33l-81 -129c13 -27 29 -59 48 -95c1 -4 50 -82 46 -81z"></glyph><glyph glyph-name="y" unicode="y" d="M353 531c34 -7 109 -35 103 -61c-3 -12 -10 -19 -20 -21l-7 -37c0 -50 -37 -160 -44 -208c-15 -95 -92 -253 -117 -313c-28 -70 -95 -136 -165 -136c-27 0 -40 8 -52 22c-29 3 -23 3 -45 10c-26 7 -46 31 -46 56c0 38 34 64 67 64c10 0 45 -9 43 -9c7 0 54 0 92 102 c11 31 28 69 46 117c-42 83 -136 264 -140 271c-29 52 -33 57 -33 73c0 38 31 63 63 63c25 0 44 -11 54 -31l104 -216c2 5 3 10 4 16c10 46 19 76 19 91c5 36 12 74 14 82c4 34 4 40 18 56c8 6 22 10 34 10c3 0 6 0 8 -1z"></glyph><glyph glyph-name="yacute" unicode="ý" d="M226 532c-16 12 -26 30 -26 52c0 12 4 24 12 34l15 20c10 15 24 32 40 50l19 22l14 21l8 13c12 17 29 27 52 27c12 0 23 -3 33 -10c17 -12 27 -29 27 -52c0 -12 -3 -23 -10 -33l-8 -13l-10 -16c-5 -8 -16 -22 -33 -41c-14 -15 -25 -28 -33 -40l-14 -20 c-12 -16 -30 -26 -52 -26c-12 0 -24 4 -34 12zM453 515c9 -11 14 -22 14 -40c0 -46 -31 -141 -84 -415c-29 -144 -97 -305 -224 -305c-27 0 -40 8 -52 22c-38 6 -57 36 -57 65c0 30 19 58 57 58c6 0 12 0 19 -2c7 0 71 7 115 172l-88 194l-28 54c-5 7 -10 15 -15 25l-11 16 c-8 12 -15 23 -20 34c-8 15 -13 31 -15 46l-2 11c-2 17 2 32 13 46c12 15 29 24 49 24c13 -1 26 -3 36 -13c44 -46 93 -147 120 -216c16 84 33 168 45 205c14 41 39 47 71 47c21 0 44 -11 57 -28z"></glyph><glyph glyph-name="ycircumflex" unicode="ŷ" d="M130 523c-19 11 -30 29 -30 53c0 11 3 22 9 32l7 12l15 25c5 8 12 19 20 34c7 13 12 23 14 28l7 16c3 7 7 16 12 25c4 7 12 15 24 22c13 8 29 14 47 14c14 0 27 -7 39 -20c8 -8 18 -24 30 -47c9 -17 17 -32 25 -45l13 -22c7 -10 10 -21 10 -32c0 -24 -11 -42 -29 -53 c-10 -6 -21 -9 -32 -9c-24 0 -42 11 -53 30l-10 15l-11 -20c-6 -9 -11 -17 -16 -26l-7 -11c-12 -19 -36 -28 -57 -28c-11 0 -21 3 -27 7zM435 504c8 -13 12 -28 10 -44l-8 -49l-8 -37c-2 -16 -4 -28 -7 -38c-1 -10 -1 -22 -5 -38c-65 -274 -115 -398 -195 -454 c-19 -13 -32 -25 -45 -31l-25 -11c-13 -6 -27 -9 -40 -9c-16 0 -32 6 -47 23c-10 12 -15 25 -15 37c0 17 9 33 25 47l12 8l7 5l13 10c19 15 41 39 59 55c31 29 48 68 61 101c-34 43 -115 137 -137 280l-14 71c-1 5 -2 10 -2 15c0 10 3 21 10 31c11 19 28 29 51 29 c12 0 23 -3 33 -9c15 -9 24 -22 28 -38l4 -19l3 -11c5 -68 27 -136 66 -204c29 81 39 207 39 216c1 12 3 24 4 33l2 9c3 16 11 29 24 38c11 8 23 11 36 11c4 0 8 0 12 -1c19 -1 43 -16 49 -26z"></glyph><glyph glyph-name="ydieresis" unicode="ÿ" d="M160 619c-13 11 -22 24 -27 41c-3 10 -4 19 -4 28c0 7 1 13 2 19l4 17c4 16 13 29 28 38c10 6 21 9 32 9c26 0 44 -13 55 -35c13 -6 22 -15 29 -27c5 -10 8 -20 8 -30c0 -3 -1 -6 -1 -9l-1 -6c-3 -21 -14 -38 -32 -51c-12 -9 -25 -13 -39 -13c-15 0 -26 2 -33 6 c-8 4 -15 8 -21 13zM383 631c-12 11 -18 26 -18 43s6 32 17 43l13 13c12 12 27 18 44 18s32 -6 44 -17c11 -12 17 -27 17 -44s-6 -32 -18 -44l-13 -13c-11 -11 -26 -17 -43 -17s-32 6 -43 18zM454 564c8 0 15 -4 20 -10c11 -13 18 -26 18 -43v-40c-1 -9 -1 -18 -2 -27 c-1 -12 -4 -25 -8 -39c-4 -11 -8 -21 -11 -32c-5 -13 -12 -27 -19 -40l-10 -34c-7 -12 -21 -64 -29 -78c-6 -10 -10 -19 -13 -26c-4 -9 -8 -18 -11 -27c-5 -9 -9 -19 -13 -30c-3 -9 -6 -15 -7 -19c-50 -131 -106 -238 -191 -274c-20 -8 -33 -12 -40 -14l-9 -4 c-2 -1 -9 -2 -18 -4c-15 -3 -26 5 -35 14c-4 3 -7 6 -9 10c-10 14 -16 30 -16 46s6 32 21 48c3 2 5 6 10 8l28 23c57 52 84 89 111 148c-10 13 -25 34 -36 53l-14 17l-11 20c-3 7 -42 84 -48 100l-38 98c-7 19 -14 32 -17 39c-5 12 -7 23 -7 34c0 13 3 25 10 37l4 6 c8 15 20 24 37 29c6 2 12 3 18 3c10 0 20 -3 29 -8c12 -7 21 -16 26 -29c3 -9 5 -17 5 -25c0 -5 -1 -10 -2 -15l9 -19c8 -18 42 -118 74 -171l13 -22l39 130c11 21 14 59 22 76c9 20 16 35 23 46l8 12c7 12 17 21 31 26c7 2 15 4 22 4c6 0 12 -1 18 -3c6 4 12 6 18 6z"></glyph></font>
</defs>
</svg>
